Najgoretsze wstawki


Autor: OenSan
Data: 21 Marzec 2017
Kategoria: FILMY » Zagraniczne
0


[b]Metallica Through The Never 2013 1080p BluRay x264 AC3[/b]


Metallica Through The Never 2013 1080p BluRay x264 AC3


Metallica Through The Never 2013 1080p BluRay x264 AC3


Podczas koncertu Metalliki członek ekipy koncertowej dostaje zlecenie odebrania ważnej przesyłki.
Z pozoru łatwe zadanie zamienia się dla niego w surrealistyczną odyseję.

Reżyseria: Nimród Antal
Scenariusz: Nimród AntalKirk,HammettJames, HetfieldRobert, TrujilloLars Ulrich
Gatunek: Musical
Produkcja: USA
Premiera: 4 października 2013 (Polska), 9 września 2013 (świat)

Metallica Through The Never 2013 1080p BluRay x264 AC3


Metallica Through The Never 2013 1080p BluRay x264 AC3


Metallica Through The Never 2013 1080p BluRay x264 AC3


[b]General[b]
Format : MPEG-4
Format profile : Base Media
Codec ID : isom (isom)
File size : 1.37 GiB
Duration : 1 h 32 min
Overall bit rate : 2 108 kb/s
Encoded date : UTC 2014-02-04 10:14:48
Tagged date : UTC 2014-02-04 10:14:48

[b]Video[/b]
ID : 1
Format : AVC
Format/Info : Advanced Video Codec
Format profile : [email protected]
Format settings, CABAC : Yes
Format settings, ReFrames : 5 frames
Codec ID : avc1
Codec ID/Info : Advanced Video Coding
Duration : 1 h 32 min
Bit rate : 2 009 kb/s
Maximum bit rate : 10.6 Mb/s
Width : 1 920 pixels
Height : 798 pixels
Display aspect ratio : 2.40:1
Frame rate mode : Constant
Frame rate : 23.976 (24000/1001) FPS
Color space : YUV
Chroma subsampling : 4:2:0
Bit depth : 8 bits
Scan type : Progressive
Bits/(Pixel*Frame) : 0.055
Stream size : 1.30 GiB (95%)

[b]Audio[/b]
ID : 2
Format : AC-3
Format/Info : Audio Coding 3
Mode extension : CM (complete main)
Format settings, Endianness : Big
Codec ID : ac-3
Duration : 1 h 32 min
Bit rate mode : Constant
Bit rate : 96.0 kb/s
Channel(s) : 2 channels
Channel positions : Front: L R
Sampling rate : 44.1 kHz
Frame rate : 28.711 FPS (1536 spf)
Bit depth : 16 bits
Compression mode : Lossy
Stream size : 63.7 MiB (5%)
Title : English Audio - Ozlem
Language : English
Encoded date : UTC 2014-02-04 10:14:50
Tagged date : UTC 2014-02-04 10:14:51

Metallica Through The Never 2013 1080p BluRay x264 AC3

Aby zobaczyć ukryty tekst musisz być zalogowany, jeżeli nie masz konta zarejestruj się!




Podziel się !

Delicious'da Share  Share on Facebook  Friendfeed Share  Google Shared  StubmleUpon'da Share  Digg'de Share  Netvibes'de Share  Reddit'de Share RSS Feeds Subscribe!

Przeglądasz witrynę jako gość.
Dlatego zachęcamy do rejestracji lub do zalogowania się.

Informacja
Użytkownicy z rangą Gość nie mogą dodawać komentarzy.