Najgoretsze wstawki


Data: 14 Wrzesień 2017
Kategoria: FILMY » Seriale
0


Ucho Prezesa (2017) Sezon 2 odcinek 1 1080p.WEBRip.H.264.AC3 / PL


Ucho Prezesa (2017) Sezon 2 odcinek 1  1080p.WEBRip.H.264.AC3 / PL

Ucho Prezesa (2017) Sezon 2 odcinek 1  1080p.WEBRip.H.264.AC3 / PL

Satyryczny serial o polskiej polityce rozgrywa się w wyobrażonym gabinecie prezesa, gdzie pani Basia i Mariusz troszczą się o prezesa, jak tylko potrafią. W każdym odcinku gabinet odwiedzają goście, którzy chcieliby szepnąć coś prezesowi na ucho.

Format : Matroska
Format version : Version 4 / Version 2
File size : 1.11 GiB
Duration : 15 min 39 s
Overall bit rate : 10.2 Mb/s
Encoded date : UTC 2017-09-14 05:24:23

Video
ID : 1
Format : AVC
Format/Info : Advanced Video Codec
Format profile : [email protected]
Format settings, CABAC : No
Format settings, RefFrames : 1 frame
Format settings, GOP : M=1, N=60
Codec ID : V_MPEG4/ISO/AVC
Duration : 15 min 39 s
Bit rate : 9 936 kb/s
Width : 1 920 pixels
Height : 1 080 pixels
Display aspect ratio : 16:9
Frame rate mode : Variable
Frame rate : 29.970 FPS
Color space : YUV
Chroma subsampling : 4:2:0
Bit depth : 8 bits
Scan type : Progressive
Bits/(Pixel*Frame) : 0.160
Stream size : 1.09 GiB (98%)

Audio
ID : 2
Format : AC-3
Format/Info : Audio Coding 3
Format settings, Endianness : Big
Codec ID : A_AC3
Duration : 15 min 39 s
Bit rate mode : Constant
Bit rate : 224 kb/s
Channel(s) : 2 channels
Channel positions : Front: L R
Sampling rate : 48.0 kHz
Frame rate : 31.250 FPS (1536 SPF)
Bit depth : 16 bits
Compression mode : Lossy
Stream size : 25.1 MiB (2%)
Language : Polish
Service kind : Complete Main


Ucho Prezesa (2017) Sezon 2 odcinek 1  1080p.WEBRip.H.264.AC3 / PL
Aby zobaczyć ukryty tekst musisz być zalogowany, jeżeli nie masz konta zarejestruj się!




Przeglądasz witrynę jako gość.
Dlatego zachęcamy do rejestracji lub do zalogowania się.

Informacja
Użytkownicy z rangą Gość nie mogą dodawać komentarzy.