Najgoretsze wstawki


Autor: OenSan
Data: 23 Marzec 2017
Kategoria: FILMY » Lektor
0


Tenacious D In The Pick Of Destiny 2006 PL DVDRip XviD


Tenacious D In The Pick Of Destiny 2006 PL DVDRip XviD


Tenacious D In The Pick Of Destiny 2006 PL DVDRip XviD


Dwóch początkujących muzyków KG (Kyle Gass) oraz JB (Jack Black) spotyka się i postanawia założyć zespół - Tenacious D.
Jednak kariera nie przychodzi im tak łatwo, jak się tego spodziewali i jak obiecał to JBowi Dio spoglądając na Niego z plakatu,
gdy ten był jeszcze młodym chłopcem. Gdy dwaj muzycy przyglądają się plakatom legend rocka takim jak Eric Clapton,
Angus Young i Eddie Van Halen zauważają, że wszyscy mają taką samą kostkę do gry na gitarze...
która obecnie znajduje się w Hali Sław Rock'n'rolla.
Chłopcy widzą w tym szansę dla swojego zespołu i postanawiają... wykraść kostkę z Muzeum.

Reżyseria: Liam Lynch
Scenariusz: Kyle Gass, Liam Lynch, Jack Black
Gatunek: Komedia, Musical
Produkcja: Niemcy, USA
Premiera: 26 października 2006 (świat)

Tenacious D In The Pick Of Destiny 2006 PL DVDRip XviD


Tenacious D In The Pick Of Destiny 2006 PL DVDRip XviD


Tenacious D In The Pick Of Destiny 2006 PL DVDRip XviD


General
Format : AVI
Format/Info : Audio Video Interleave
File size : 700 MiB
Duration : 1 h 30 min
Overall bit rate mode : Variable
Overall bit rate : 1 084 kb/s
Writing application : VirtualDubMod 1.5.10.2 (build 2542/release)
Writing library : VirtualDubMod build 2542/release

Video
ID : 0
Format : MPEG-4 Visual
Format profile : Advanced [email protected]
Format settings, BVOP : 2
Format settings, QPel : No
Format settings, GMC : No warppoints
Format settings, Matrix : Default (H.263)
Muxing mode : Packed bitstream
Codec ID : XVID
Codec ID/Hint : XviD
Duration : 1 h 30 min
Bit rate : 943 kb/s
Width : 640 pixels
Height : 336 pixels
Display aspect ratio : 1.905
Frame rate : 25.000 FPS
Color space : YUV
Chroma subsampling : 4:2:0
Bit depth : 8 bits
Scan type : Progressive
Compression mode : Lossy
Bits/(Pixel*Frame) : 0.175
Stream size : 609 MiB (87%)
Writing library : XviD 1.2.1 (UTC 2008-12-04)

Audio
ID : 1
Format : MPEG Audio
Format version : Version 1
Format profile : Layer 3
Mode : Joint stereo
Mode extension : MS Stereo
Codec ID : 55
Codec ID/Hint : MP3
Duration : 1 h 30 min
Bit rate mode : Variable
Bit rate : 132 kb/s
Channel(s) : 2 channels
Sampling rate : 48.0 kHz
Compression mode : Lossy
Delay relative to video : 288 ms
Stream size : 82.7 MiB (12%)
Alignment : Split accross interleaves
Interleave, duration : 24 ms (0.60 video frame)
Interleave, preload duratio : 1093 ms
Writing library : LAME3.98a
Encoding settings : -m j -V 4 -q 3 -lowpass 17 --abr 132



Tenacious D In The Pick Of Destiny 2006 PL DVDRip XviD

Aby zobaczyć ukryty tekst musisz być zalogowany, jeżeli nie masz konta zarejestruj się!



Podziel się !

Delicious'da Share  Share on Facebook  Friendfeed Share  Google Shared  StubmleUpon'da Share  Digg'de Share  Netvibes'de Share  Reddit'de Share RSS Feeds Subscribe!

Przeglądasz witrynę jako gość.
Dlatego zachęcamy do rejestracji lub do zalogowania się.

Informacja
Użytkownicy z rangą Gość nie mogą dodawać komentarzy.