Menu

Download

Dziś nas odwiedzili:
Archiwum:
Grudzień 2016 (891)
Listopad 2016 (2433)
Październik 2016 (1961)
Wrzesień 2016 (1857)
Sierpień 2016 (2521)
Lipiec 2016 (2605)


Pokaż wszystkie tagi:
Wejścia na Vorek.pl z:
{referer}



NABÓR NA STANOWISKO


MODERATOR        UPLOADER




RPS feat. Gandi Ganda & Kobra - Gruba impra z Rysiem 2

RPS feat. Gandi Ganda & Kobra - Gruba impra z Rysiem 2



Obsada:

Peja
Gandi Ganda
Kobra
Pani Basia


Dane techniczne:

RPS feat. Gandi Ganda & Kobra -Gruba impra z Rysiem 2-.mp4
Format : MPEG-4
Format profile : Base Media / Version 2
Codec ID : mp42
File size : 130 MiB
Duration : 6mn 20s
Overall bit rate : 2 870 Kbps
Encoded date : UTC 2010-11-18 01:53:02
Tagged date : UTC 2010-11-18 01:53:02
gsst : 0
gstd : 380480
gssd : BADC206A4HH1298590897010324
gshh : v19.lscache8.c.youtube.com

Video
ID : 1
Format : AVC
Format/Info : Advanced Video Codec
Format profile : [email protected]
Format settings, CABAC : Yes
Format settings, ReFrames : 1 frame
Codec ID : avc1
Codec ID/Info : Advanced Video Coding
Duration : 6mn 20s
Bit rate mode : Variable
Bit rate : 2 738 Kbps
Maximum bit rate : 6 653 Kbps
Width : 1 280 pixels
Height : 720 pixels
Display aspect ratio : 16:9
Frame rate mode : Constant
Frame rate : 25.000 fps
Color space : YUV
Chroma subsampling : 4:2:0
Bit depth : 8 bits
Scan type : Progressive
Bits/(Pixel*Frame) : 0.119
Stream size : 124 MiB (95%)
Tagged date : UTC 2010-11-18 01:53:09

Audio
ID : 2
Format : AAC
Format/Info : Advanced Audio Codec
Format version : Version 4
Format profile : LC
Codec ID : 40
Duration : 6mn 20s
Bit rate mode : Variable
Bit rate : 128 Kbps
Maximum bit rate : 214 Kbps
Channel(s) : 2 channels
Channel positions : Front: L R
Sampling rate : 44.1 KHz
Stream size : 5.81 MiB (4%)

Archiwum zawiera 10% danych naprawczych


DOWNLOAD:

Party można pobierać na przemian:

Aby zobaczyć ukryty tekst musisz być zalogowany, jeżeli nie masz konta zarejestruj się!


Do pobierania z powyższych serwerów polecam program FreeRapid który sam to zrobi za ciebie (obsługuje nie które konta premium np. na Hotfile)
Aby zobaczyć ukryty tekst musisz być zalogowany, jeżeli nie masz konta zarejestruj się!





Podziel się !

Delicious'da Share  Share on Facebook  Friendfeed Share  Google Shared  StubmleUpon'da Share  Digg'de Share  Netvibes'de Share  Reddit'de Share RSS Feeds Subscribe!

Powrót
Przeglądasz witrynę jako gość.
Dlatego zachęcamy do rejestracji lub do zalogowania się.

Informacja
Użytkownicy z rangą Gość nie mogą dodawać komentarzy.