Menu

Download

Dziś nas odwiedzili:
Archiwum:
Grudzień 2016 (796)
Listopad 2016 (2434)
Październik 2016 (1961)
Wrzesień 2016 (1857)
Sierpień 2016 (2521)
Lipiec 2016 (2605)


Pokaż wszystkie tagi:
Wejścia na Vorek.pl z:
{referer}



NABÓR NA STANOWISKO


MODERATOR        UPLOADER



DefQon One Festival 2011 720p MBluRay x264-TREBLE



DefQon One Festival (2011)



Opis



RELEASE : DefQon.One.Festival.2011.720p.MBluRay.x264-TREBLE
SOURCE : Music Bluray
DATE : 03/09/2010
GENRE : Hardstyle
RUNTIME : 2h09min

AUDIO : [dts] @ 1510kbps
ID : 2
Format : DTS
Format/Info : Digital Theater Systems
Muxing mode : Header stripping
Codec ID : A_DTS
Duration : 2h 9mn
Bit rate mode : Constant
Bit rate : 1 510 Kbps
Channel(s) : 6 channels
Channel positions : Front: L C R, Side: L R, LFE
Sampling rate : 48.0 KHz
Bit depth : 16 bits
Compression mode : Lossy
Stream size : 1.36 GiB (25%)

VIDEO : [x264] @ 4553kbps
ID : 1
Format : AVC
Format/Info : Advanced Video Codec
Format profile : [email protected]
Format settings, CABAC : Yes
Format settings, ReFrames : 5 frames
Muxing mode : Header stripping
Codec ID : V_MPEG4/ISO/AVC
Duration : 2h 9mn
Bit rate : 4 553 Kbps
Width : 1 280 pixels
Height : 720 pixels
Display aspect ratio : 16:9
Frame rate : 25.000 fps
Color space : YUV
Chroma subsampling : 4:2:0
Bit depth : 8 bits
Scan type : Progressive
Bits/(Pixel*Frame) : 0.198
Stream size : 3.99 GiB (73%)

RESOLUTION : [1280x720]

SUBS : None.

Aftermovie from the 2011 Edition of DefQon1.

Red (Hosted by Ruffian)
- Noisecontrollers
- Technoboy
- Headhunterz & Wildstylez
- Zatox
- Digital Age Showcase by Wildstylez (live)
- The Prophet
- B-Front
- Kutski
- Boiweapon vs. Toneshifterz
- Stana






Download:

Aby zobaczyć ukryty tekst musisz być zalogowany, jeżeli nie masz konta zarejestruj się!



Podziel się !

Delicious'da Share  Share on Facebook  Friendfeed Share  Google Shared  StubmleUpon'da Share  Digg'de Share  Netvibes'de Share  Reddit'de Share RSS Feeds Subscribe!

Powrót
Przeglądasz witrynę jako gość.
Dlatego zachęcamy do rejestracji lub do zalogowania się.

Informacja
Użytkownicy z rangą Gość nie mogą dodawać komentarzy.