Menu

Download

Dziś nas odwiedzili:
Archiwum:
Grudzień 2016 (693)
Listopad 2016 (2434)
Październik 2016 (1961)
Wrzesień 2016 (1857)
Sierpień 2016 (2521)
Lipiec 2016 (2605)


Pokaż wszystkie tagi:
Wejścia na Vorek.pl z:
{referer}



NABÓR NA STANOWISKO


MODERATOR        UPLOADER



Uczeń czarnoksiężnika / The Sorcerer's Apprentice (2010) [R2 XviD] [EN]

Uczeń czarnoksiężnika / The Sorcerer's Apprentice (2010) [R2 XviD] [EN]

reżyseria: Jon Turteltaub
scenariusz: Lawrence Konner, Matt Lopez
premiera: 30 lipca 2010 (Polska) 8 lipca 2010 (Świat)
produkcja: USA
gatunek: Fantasy, Przygodowy, Akcja

Nicolas Cage - Balthazar Blake
Monica Bellucci - Veronica
Jay Baruchel - Dave Stutler
Alfred Molina - Horvath
Peyton List - Młoda Becky
Nicole Ehinger - Abigail
Toby Kebbell - Drake Stone
Jake Cherry - Młody Dave
Omar Benson Miller -
Robert Capron - Oscar

Nowy film twórców "Piratów z Karaibów", "Skarbu Narodów" i "Księcia Persji" Nicolas Cage, Monica Bellucci i Alfred Molina w ekscytującym, pełnym zaskakujących zwrotów akcji, brawurowo zagranym filmie action fantasy. Nicolas Cage wciela się w postać współczesnego mistrza magii Balthazara Blake'a, który ze swoim nieopierzonym uczniem ma pokonać swojego odwiecznego wroga Maxima Horvath'a (Alfred Molina). Horvath zostaje nieopatrznie uwolniony z... magicznej matrioszki i rozpoczyna się walka dobra ze złem. Czarnoksiężnik i jego gamoniowaty uczeń kontra złe moce w oprawie odjazdowych efektów specjalnych demolują Nowy Jork! Czy dobrzy chłopcy wygrają ze złem tego świata? Czy władza nad mocą jest cool? Przekonaj się na własne oczy!


The.Sorcerers.Apprentice.2010.R2.LiNE.XviD-CLASSiFiED

Video
ID                               : 0
Format                           : MPEG-4 Visual
Format profile                   : Advanced [email protected]
Format settings, BVOP            : Yes
Format settings, QPel            : No
Format settings, GMC             : No warppoints
Format settings, Matrix          : Default (H.263)
Muxing mode                      : Packed bitstream
Codec ID                         : XVID
Codec ID/Hint                    : XviD
Duration                         : 1h 39mn
Bit rate                         : 839 Kbps
Width                            : 624 pixels
Height                           : 296 pixels
Display aspect ratio             : 2.2:1
Frame rate                       : 25.000 fps
Color space                      : YUV
Chroma subsampling               : 4:2:0
Bit depth                        : 8 bits
Scan type                        : Progressive
Bits/(Pixel*Frame)               : 0.182
Stream size                      : 595 MiB (86%)
Writing library                  : XviD 1.1.2 (UTC 2006-11-01)

Audio
ID                               : 1
Format                           : MPEG Audio
Format version                   : Version 1
Format profile                   : Layer 3
Codec ID                         : 55
Codec ID/Hint                    : MP3
Duration                         : 1h 38mn
Bit rate mode                    : Constant
Bit rate                         : 128 Kbps
Channel(s)                       : 2 channels
Sampling rate                    : 44.1 KHz
Video delay                      : 22ms
Stream size                      : 90.2 MiB (13%)
Alignment                        : Split accross interleaves
Interleave, duration             : 40 ms (1.01 video frame)
Interleave, preload duration     : 500 ms

Uczeń czarnoksiężnika / The Sorcerer's Apprentice (2010) [R2 XviD] [EN]Uczeń czarnoksiężnika / The Sorcerer's Apprentice (2010) [R2 XviD] [EN]Uczeń czarnoksiężnika / The Sorcerer's Apprentice (2010) [R2 XviD] [EN]


Waga: 701MB

Paczki po 400MB, można pobierać na przemian:

Aby zobaczyć ukryty tekst musisz być zalogowany, jeżeli nie masz konta zarejestruj się!

lub

Aby zobaczyć ukryty tekst musisz być zalogowany, jeżeli nie masz konta zarejestruj się!


701MB, jeden link:

Aby zobaczyć ukryty tekst musisz być zalogowany, jeżeli nie masz konta zarejestruj się!

lub

Aby zobaczyć ukryty tekst musisz być zalogowany, jeżeli nie masz konta zarejestruj się!



Podziel się !

Delicious'da Share  Share on Facebook  Friendfeed Share  Google Shared  StubmleUpon'da Share  Digg'de Share  Netvibes'de Share  Reddit'de Share RSS Feeds Subscribe!

Powrót
Przeglądasz witrynę jako gość.
Dlatego zachęcamy do rejestracji lub do zalogowania się.

Informacja
Użytkownicy z rangą Gość nie mogą dodawać komentarzy.