Menu

Download

Dziś nas odwiedzili:
kodotorrva, Donaj, smoksmok31, rodzynek1983, kkk244240, draco, cyganek, Abdul_wisimulacha, geniekw81, rutkowski20, skorpion82, zyga, mwita3, jusia266, pawo, JONYS, mlody2205, renka, scorpions793, wlodek66, siwek-naklo, narkusdwa, huano877, mart1nof, firex3211, podol76, niguel, slapot78, janek1888, bobeslaw80, bollos, fox57, lukasz666666, RevolU, MARIULA500, seba512, geniu7, Raf.36, zadlo80, blackbird140, trixi i mila, dumdum23, martin7011, laewa, dakrot, skorpion653202, robertcacek, kuras, jacaalvaro, rufinone, andy08, ango, rumak83, kanapkatorpedo, Matthew67, amus2, bowe1969, Ireland29, dariusz77, leszeczek, Proton_1x, romanirena, tomek i ania, ravler89, amfa07, anetam1, marcindziki1, eneasz, bastion4, sproket1, sieq0, michal3670, stanisław, Krakus51, skrzyneczka112, karbor83, trybsiu, cyrzan4, robanek01, Liar, piterd14, wfman, janek12, kamyk70, maruda3773, snayper, solgerx, kikir3, miecio28, landryn, kazosokrates, keczo, bardini, pika01, joyeczek, djlemur, inesimariusz, n-gregory, wojtas1000, kako181, mart73, terry258, wojslo5, pit.7777, mrozek8, Painkiller212, yaro97, soja, cichyd1, CCC59KXJ, enigma1952, sandoran1962, HYDRODAREK, hopasiup, MIREK11111, lukasz10051, posejdon, krzysztofko, crashed323, DeejayMalec, wasyl75, pbpbpbpbpb, margaretka62, biznesmen66, pysiu_m, cybulx, geniusloci, wytaczarz44, bodek63, krepel, darekbus, lonej1, Krzysztof1973, kwankrzy1, kanzas, adamusasior122, Grav1ty, piterolo74, womi10, pentor, ulaghost, kriss86pl, jozielona, pawnan, vasiwasyl, figo73, slabin, coruble, tomaszo1948, darodaro, jeno10, dariuszlbn, smina, trez, Fedor11, lukaszek17, Andi-diesel, topikos, klymvm, Sdrov, robek4, piurored123, bodekk2, akak1, bylik71, dejw, tobi180, Grzegorz72, albert6020, kwasek, szybki811, bil, tadeuszo7, Estek1, stanley_pl, xxvxx5, zibi19979, crownart, Dawid88Diablo, Trytonik, wotar, skajla, cukierek-85, pirek, iwonaro, edmund54, mogo76, karton1, mani4444, MARTEX01, jupkeennss, Feniks101, ralf1976, adasek.u, Uszka2001, lysy1710, igi2, mariant, bolo335, zajac26, adox80, zakopne, zpcytadela, JoXs, buruburu, zbeer, pepik11, mondia, robaczio9, Manias01, gruby1001, topolski, weenzer, eree, Ewelina05, kudek01, tomaszlegion, Tomciu78, Veni, victory04, jeak, marekdudi, tomex2u, marek.k30, kasiaj4, splittt, barteklublin111, dudikn, malczyce, muldas, misiu1185, mp3de, MarczelM, ARTUROSE, yonk, lorak56, mardra1, sharkus, lepper, jedrek00711, and20, arkadiusz271, ciechom, foch5r, kasi, robin163, brovarek123, GunHead, slay25, lordsiur, pychu007, elasuc, baraxx, dorkasevi, Bartekn90, ziuta, symoni2008, 3366, spoli, aspekt2004, michas86, bydgoszcz22, pipipiotr, karol2005, kurosumi, przemograf, szery17, riko121, celin, jano666, tedxvs, jerry1013, krewetka105, xard2906, sir daro 24, andrzej15181, biggreg, jinks13, mks, gawron.1983, angelo1969, syaro, iruss3, wenancjusz21, porwichp, Ashigari, Cirrus, lucky170, mariusz242, skarabeusz, andjey, jpwko, Zelwik, alex, EdiMar, jarecki500, romuskat, aj 1971, bazumi20, Kamirllo105, adikos34, buku54, Auto-Lux, waldek77, tristan_mk, virginiaa, ramon, jarro40, Bab66, Bóli123, -julius-, emilianox, Karlos2150, szturmen, gargamel_50, tom7517, puedros57, Finder, matexe, gbur17, Svilesis, momo1410, Vanisz, 17051970, zbok69, LeoMarkus, secundus, EFBOT

Archiwum:
Grudzień 2016 (944)
Listopad 2016 (2431)
Październik 2016 (1961)
Wrzesień 2016 (1857)
Sierpień 2016 (2521)
Lipiec 2016 (2605)


Pokaż wszystkie tagi:
Wejścia na Vorek.pl z:
{referer}



NABÓR NA STANOWISKO


MODERATOR        UPLOADER



Monsters 2010



Monsters 2010


O FILMIE:
Sonda z próbkami mającymi udowodnić istnienie życia pozaziemskiego rozbija się nad Ameryką Środkową. Niedługo po tym wydarzeniu zaczęły się tam pojawiać nowe formy życia, a połowę terytorium Meksyku uznano za teren skażony i poddano kwarantannie. Fascynujący film drogi o potworach i miłości ulokowanej po niewłaściwej stronie.




pewny upload 100%work 10% Danych naprawczych :)
party po 400MB
Dwa serwery można ściągać na przemiennie ;)



OBSADA:
Whitney Able ...
Samantha Wynden
Scoot McNairy ...
Andrew Kaulder

INFO:
reżyseria: Gareth Edwards
scenariusz: Gareth Edwards
premiera: 18 czerwca 2010 (Świat) 2010-06-18
produkcja: Wielka Brytania
gatunek: Melodramat, Sci-Fi

Format : AVI
Format/Info : Audio Video Interleave
File size : 1.02 GiB
Duration : 1h 31mn
Overall bit rate : 1 600 Kbps
Writing Application : VirtualDub build 24442/release
Writing library : Nandub build 1853/release

Video
ID : 0
Format : MPEG-4 Visual
Format profile : Advanced [email protected]
Format settings, BVOP : No
Format settings, QPel : No
Format settings, GMC : No warppoints
Format settings, Matrix : Default (MPEG)
Codec ID : XVID
Codec ID/Hint : XviD
Duration : 1h 31mn
Bit rate : 1 461 Kbps
Width : 640 pixels
Height : 352 pixels
Display aspect ratio : 16:9
Frame rate : 29.970 fps
Color space : YUV
Chroma subsampling : 4:2:0
Bit depth : 8 bits
Scan type : Progressive
Bits/(Pixel*Frame) : 0.216
Stream size : 951 MiB (91%)
Writing library : XviD 1.1.2 (UTC 2006-11-01)

Audio
ID : 1
Format : MPEG Audio
Format version : Version 1
Format profile : Layer 3
Codec ID : 55
Codec ID/Hint : MP3
Duration : 1h 31mn
Bit rate mode : Constant
Bit rate : 128 Kbps
Channel(s) : 2 channels
Sampling rate : 44.1 KHz
Stream size : 83.4 MiB (8%)
Alignment : Split accross interleaves
Interleave, duration : 33 ms (1.00 video frame)
Interleave, preload duration : 500 ms


Hotfile:

Aby zobaczyć ukryty tekst musisz być zalogowany, jeżeli nie masz konta zarejestruj się!


Fileserve
Aby zobaczyć ukryty tekst musisz być zalogowany, jeżeli nie masz konta zarejestruj się!



Podziel się !

Delicious'da Share  Share on Facebook  Friendfeed Share  Google Shared  StubmleUpon'da Share  Digg'de Share  Netvibes'de Share  Reddit'de Share RSS Feeds Subscribe!

Powrót
Przeglądasz witrynę jako gość.
Dlatego zachęcamy do rejestracji lub do zalogowania się.

Informacja
Użytkownicy z rangą Gość nie mogą dodawać komentarzy.