Menu

Download

Dziś nas odwiedzili:
yonk, wytaczarz44, tomaszlegion, GunHead, artfrst, pychu007, solgerx, wlodek66, levy52, karbor83, Taktyk91, matey777, Raf.36, amfetaminka, marian1999, mart1nof, kajtek42, areczek971, porwichp, Painkiller212, laewa, ciołek12, tomaszo1948, stanley_pl, biznesmen66, cichyd1, darunia27, Fedor11, miro72, eneasz, geniusloci, marek6408, glut1510, niguel, Bodzio57, darekbus, foch5r, ralf1976, jpwko, ravler89, Mazip007, jurekaw, jerry1013, rumak83, andino, ango, kudek01, wfman, lukasz10051, tadeuszo7, tomek i ania, werona1, drls1989, Optimus22, aga2.05, lucky170, misiu1185, 3366, secundus, FALKON69, papay100, topikos, jcl, priv, lauratcv, grochu777, buruburu, weronis, qczi, waclaw, mariant, baraxx, mondia, mobil199, gasior932, MARIULA500, krepel, weenzer, adam101102, buba48, Sarima, czesiek1964, gbur17, bazumi20, ARTUROSE, Andi-diesel, Krakus51, ryszardos69, mam321, Finder, BoloLVII, akak1, intermilano, adox80, lorak56, rutkowski20, czesie_k, kamelot2012, wotar, Manias01, osa31, aspekt2004, krys49, crownart, Uszka2001, skarabeusz, bylik71, MechoTV, darekgl1968, daro30, Zelwik, tedxvs, splittt, zpcytadela, buku54, drenn1, Kamirllo105, angelo1969, Sypi, ASTERGO, zibim, jupkeennss, spoli, RUFO, serrafus, robaczio9, wojtasg, sznurowski, kat666, jano666, jinks13, Lukas8, pepik11, mariusz242, lipenjusz, chemik638, jusia266, gento, machoney1920, lukaszek17, celin, xard2906, pestka210, Matthew67, Ashigari, andjey, iruss3, Cirrus, alex, EdiMar, aj 1971, Bartekn90, jojogurt, Samuel Buddy, P.P.P., mpawel71, lopez138, Abdul_wisimulacha, Aydamusek, wielgi24, Vanisz, mp3de, slawol666, lepper, rudagemba, Seba1984r, virginiaa, andwnu, WeilandT, jarek861029, Trytonik, EFBOT, jarecki500, Svilesis

Archiwum:
Grudzień 2016 (632)
Listopad 2016 (2434)
Październik 2016 (1961)
Wrzesień 2016 (1857)
Sierpień 2016 (2521)
Lipiec 2016 (2605)


Pokaż wszystkie tagi:
Wejścia na Vorek.pl z:
{referer}



NABÓR NA STANOWISKO


MODERATOR        UPLOADER




Prince Of Persia (2010) DVDRip XviD AC3-LEGi0N

Prince Of Persia (2010) DVDRip XviD AC3-LEGi0N

reżyseria: Mike Newell
scenariusz: Boaz Yakin, Carlo Bernard (więcej...)
premiera: 21 maja 2010 (Polska) 9 maja 2010 (Świat)
produkcja: USA
gatunek: Fantasy, Przygodowy


Dastan, najmłodszy syn króla Persji Sharamana, razem z trzema braćmi i wujem, przebywa na wyprawie wojennej. Udaje im się przechwycić karawanę przemytników, na podstawie której stwierdzają, że Święte Miasto Alamut jest sojusznikiem ich wrogów. Wbrew zakazowi króla wyruszają rozprawić się ze zdrajcami. W czasie zdobywania twierdzy, każdy z czterech braci szuka odpowiedniego trofeum dla ojca. Najstarszy z nich, Tus, radzi Dastanowi, by podarował mu wspaniałą szatę. Po powrocie do domu, kiedy tylko Sharaman nakłada ją na siebie, zostaje przez nią pochłonięty. Dastan, wraz z porwaną z Alamut księżniczką Taminą, uciekając przed złaknionym kary dla rzekomego mordercy króla kapitanem straży, odkrywają niezwykłe właściwości tajemniczego sztyletu znalezionego w Alamut. Dastan, wraz z towarzyszką, decyduje się powrócić do Świętego Miasta, by dowiedzieć się, czy, a jeśli tak to dlaczego, jego brat posłużył się nim do pozbycia się ojca.

Video
Format : MPEG-4 Visual
Format profile : Advanced [email protected]
Format settings, BVOP : Yes
Format settings, QPel : No
Format settings, GMC  : No warppoints
Format settings, Matrix : Default (H.263)
Muxing mode : Packed bitstream
Codec ID : XVID
Duration : 1h 51mn
Bit rate : 1 284 Kbps
Width  : 720 pixels
Height : 304 pixels
Display aspect ratio : 2.35:1
Frame rate : 25.000 fps
Color space : YUV
Chroma subsampling : 4:2:0
Bit depth : 8 bits
Scan type : Progressive
Bits/(Pixel*Frame) : 0.235
Stream size : 1 020 MiB (74%)

Audio
Format : AC-3
Mode extension : CM (complete main)
Codec ID : 2000
Bit rate mode : Constant
Bit rate : 448 Kbps
Channel(s) : 6 channels
Sampling rate : 48.0 KHz
Stream size : 356 MiB (26%)


Prince Of Persia (2010) DVDRip XviD AC3-LEGi0N Prince Of Persia (2010) DVDRip XviD AC3-LEGi0N

Prince Of Persia (2010) DVDRip XviD AC3-LEGi0N Prince Of Persia (2010) DVDRip XviD AC3-LEGi0N

Prince Of Persia (2010) DVDRip XviD AC3-LEGi0N

Aby zobaczyć ukryty tekst musisz być zalogowany, jeżeli nie masz konta zarejestruj się!




Podziel się !

Delicious'da Share  Share on Facebook  Friendfeed Share  Google Shared  StubmleUpon'da Share  Digg'de Share  Netvibes'de Share  Reddit'de Share RSS Feeds Subscribe!

Powrót
Przeglądasz witrynę jako gość.
Dlatego zachęcamy do rejestracji lub do zalogowania się.

Informacja
Użytkownicy z rangą Gość nie mogą dodawać komentarzy.