Menu

Download

Dziś nas odwiedzili:
fox57, artfrst, rufinone, maruda3773, xmiro, jeno10, CCC59KXJ, miesniak, globline, Krzysieklu, slay25, rumak83, romanirena, tyciuni, mwita3, pychu007, MarlonM, adamusasior122, ziuta, eneasz, santa3, pbpbpbpbpb, trigall, miodowe, pitereku, vampire69, robek4, lonej1, maliniak, Patryk1972, gawron.1983, maciej1900, puszek67, wlodek55, drls1989, migotek, Siegfried, skorpion653202, narkusdwa, cycek77, eree, jano666, jinks13, kkk244240, jaco013, xard2906, ralf1976, Prospector00, figo73, snayper, sir daro 24, agary35, wytaczarz44, Liar, dejw, yonk, matey777, andy08, kuras, jacek40old, heniek_ih, skajla, szybki811, skarabeusz, pixel1194, brovarek123, GunHead, cichyd1, Ambasadoor70, solgerx, MarczelM, kurosumi, igi2, akak1, kat666, klymvm, biznesmen66, mlody2205, misiu1185, piterd14, grzegorz48, feihung, jurek50, Beno182210, panradzio, karton1, nowmarek, sbb1953, Manias01, pentor, tomaszo1948, iruss3, jeak, Sypi, topikos, Andi-diesel, demon190219, wawa998, kanzas, aga2.05, kudek01, mariant, golden2, aronia, Zelwik, mondia, lysy68, waclaw, lukasz10051, polska00, Lorenz, geniusloci, bodekk2, sznurowski, 75tofik, krepel, tomek i ania, Bodzio57, Finder, Mario090673, keram, koziorożec, cze, tat4, buku54, huarez44, kajtek42, lepper, splittt, Dom612, jedrek00711, lauratcv, crownart, adox80, marek6408, secundus, miro72, Krakus51, Fedor11, luka121212, baraxx, marian1999, zieciut2, edmund54, podol76, jerry1013, buba48, victory04, mpawel71, toczev, ulaghost, Sdrov, circus, anetam1, JoXs, ARTUROSE, andino, wotar, qczi, Lukas8, Creative, lyser, renka, lucky170, weenzer, osa31, arkadiusz271, kamelot2012, grygol2, krys49, symoni2008, piurored123, aspekt2004, Auto-Lux, danix20, seat1234, bolo335, prularis, papor, wojtasg, ASTERGO, zbeer, tedxvs, jacolcom, intermilano, robaczio9, Uszka2001, latos2005, RUFO, MARIULA500, konradko77, pipipiotr, jusia266, jojogurt, biggreg, mirek4321, ryszardos69, angelo1969, drenn1, papay100, Bartekn90, joanna72, pluton777777, djlemur, mp3de, celin, spoli, andjey, alex, spot2302, tobi180, sayo300, pepik11, Cirrus, jurczyna, kasi, EdiMar, bowe1969, rw57, mariusz242, aj 1971, nonez, Kamirllo105, waldemarmichniuk, Vanisz, rftgyh, Ashigari, patryk12345, jan000, darekbus, ahmedibnfahlan, Johanson325, jarecki500, ramon, slawol666, smoksmok31, miecio28, EFBOT, virginiaa, Svilesis

Archiwum:
Grudzień 2016 (567)
Listopad 2016 (2434)
Październik 2016 (1961)
Wrzesień 2016 (1857)
Sierpień 2016 (2521)
Lipiec 2016 (2605)


Pokaż wszystkie tagi:
Wejścia na Vorek.pl z:
{referer}



NABÓR NA STANOWISKO


MODERATOR        UPLOADER



Ripper ...........:IMAGiNE
Video Codec.......:XViD
Release Date......:07/14/10
Audio Codec.......:Layer 3
Theatre Date......:07/17/10
Audio Bitrate.....:128
Runtime...........:1h 38mn
Subtitles.........:NIL
Language..........:ENGLISH
Resolution........:640 x 272



DETAILS:

Video
Format                           : MPEG-4 Visual
Format profile                   : Streaming [email protected]
Format settings, BVOP            : Yes
Format settings, QPel            : No
Format settings, GMC             : No warppoints
Format settings, Matrix          : Default
Muxing mode                      : Packed bitstream
Codec ID                         : XVID
Codec ID/Hint                    : XviD
Duration                         : 1h 38mn
Bit rate                         : 1 897 Kbps
Width                            : 640 pixels
Height                           : 272 pixels
Display aspect ratio             : 2.35
Frame rate                       : 25.000 fps
Resolution                       : 24 bits
Colorimetry                      : 4:2:0
Scan type                        : Progressive
Bits/(Pixel*Frame)               : 0.436
Stream size                      : 1.30 GiB (93%)
Writing library                  : XviD 50

Audio
Format                           : MPEG Audio
Format version                   : Version 1
Format profile                   : Layer 3
Codec ID                         : 55
Codec ID/Hint                    : MP3
Duration                         : 1h 38mn
Bit rate mode                    : Constant
Bit rate                         : 128 Kbps
Channel(s)                       : 2 channels
Sampling rate                    : 44.1 KHz
Resolution                       : 16 bits
Stream size                      : 90.1 MiB (6%)
Alignment                        : Split accross interleaves
Interleave, duration             : 40 ms (1.00 video frame)
Interleave, preload duration     : 500 ms



NOTES:

IMAGiNE bringing you another release..... The Sorcerer's Apprentice

This one goes out to our very good friend that wants to see this one...
You know who you are...

Sources used were the the xvid from RelizLab... Thanks Mate... And our own line audio
Work done... Just a real quick one on this one. We took the russian xvid and did
our normal filtering, changed the colors added a deblock and smoother filter, and
a few other things. Turned out to be a nice video source to use. Then on to the audio...
Took a little longer on this audio to sync it, but its nice and in sync.


Uczeń czarnoksiężnika /The Sorcerer’s Apprentice

Uczeń czarnoksiężnika /The Sorcerer’s Apprentice

Uczeń czarnoksiężnika /The Sorcerer’s Apprentice



http://hotfile.com/dl/55963350/e525624/The_Sorcerer_s_Apprentice_TS_XViD_IMAGiNE.part1.rar.html
http://hotfile.com/dl/55963472/b126e38/The_Sorcerer_s_Apprentice_TS_XViD_IMAGiNE.part2.rar.html
http://hotfile.com/dl/55963515/b07d39f/The_Sorcerer_s_Apprentice_TS_XViD_IMAGiNE.part3.rar.html
http://hotfile.com/dl/55963550/38838e1/The_Sorcerer_s_Apprentice_TS_XViD_IMAGiNE.part4.rar.html
http://hotfile.com/dl/55963585/c782bc1/The_Sorcerer_s_Apprentice_TS_XViD_IMAGiNE.part4.rar.html
http://hotfile.com/dl/55963654/3e458f2/The_Sorcerer_s_Apprentice_TS_XViD_IMAGiNE.part5.rar.html
http://hotfile.com/dl/55963727/0aa4f1f/The_Sorcerer_s_Apprentice_TS_XViD_IMAGiNE.part6.rar.html
http://hotfile.com/dl/55963784/f4bc99f/
The_Sorcerer_s_Apprentice_TS_XViD_IMAGiNE.part7.rar.htm
http://hotfile.com/dl/55964154/f429648/.TSa.XViD.IMAGiNE.part8.rar.html



Podziel się !

Delicious'da Share  Share on Facebook  Friendfeed Share  Google Shared  StubmleUpon'da Share  Digg'de Share  Netvibes'de Share  Reddit'de Share RSS Feeds Subscribe!

Powrót
Przeglądasz witrynę jako gość.
Dlatego zachęcamy do rejestracji lub do zalogowania się.

mateo35
#1
  • 25 Lipiec 2010 16:25
  • Zarejestrowany: 28.08.2009
  • Artykułów: 0
  • Komentarzy: 6
  • Status:
  • Offline
PART 8 ?????????????
Informacja
Użytkownicy z rangą Gość nie mogą dodawać komentarzy.