Menu

Download

Dziś nas odwiedzili:
Archiwum:
Grudzień 2016 (704)
Listopad 2016 (2434)
Październik 2016 (1961)
Wrzesień 2016 (1857)
Sierpień 2016 (2521)
Lipiec 2016 (2605)


Pokaż wszystkie tagi:
Wejścia na Vorek.pl z:
{referer}



NABÓR NA STANOWISKO


MODERATOR        UPLOADER



The Twilight Saga: Eclipse TS XViD - IMAGiNE

Angielskie audio!



The Twilight Saga: Eclipse / Saga Zmierzch: Zaćmienie (2010) TS XViD - IMAGiNE





*********** ****    ****      ***      ******** *********** ****    *** **********
          *+*     +*+*+* *+*+*+   *+* *+*   *+*    *+*    *+*     *+*+*   *+* *+*        
          +*+     +*+ +*+*+ +*+  +*+   +*+  +*+           +*+     *+*+*+  +*+ +*+        
          +$+     +$+  +*+  +$+ +$++*++$++* *$*           +$+     +$+ +*+ +$+ +$++*++$  
          +$+     +$+       +$+ +$+     +$+ +$+   +$+$    +$+     +$+  +$+$+$ +$+        
          $+$     $+$       $+$ $+$     $+$ $+$    $+$    $+$     $+$   $+$+$ $+$        
      $$$$$$$$$$$ $$$       $$$ $$$     $$$  $$$$$$$$ $$$$$$$$$$$ $$$    $$$$ $$$$$$$$$$    
                                              



                          Another Fine Release Brought to you from - IMAGiNE                  
                                                

********************************************************************************************************************                                
                             The Twilight Saga Eclipse TS XViD - IMAGiNE
********************************************************************************************************************

Ripper ...........: IMAGiNE                                        IMDB Rating.......:3.9/10                            
Video Codec.......: XVID                                         Release Date......:02/07/10
Audio Codec.......:MP3                                           Theatre Date......:30/06/10
Audio Bitrate.....:128                                              Runtime.......:1h 55mn
Subtitles.........:NIL                                                 Language..........:ENGLISH
Resolution...... 720 x 304                                      IMDb URL..........:http://www.imdb.com/title/tt1325004/


DETAILS:

Video
Format                           : MPEG-4 Visual
Format profile                   : Streaming [email protected]
Format settings, BVOP            : Yes
Format settings, QPel            : No
Format settings, GMC             : No warppoints
Format settings, Matrix          : Default
Muxing mode                      : Packed bitstream
Codec ID                         : XVID
Codec ID/Hint                    : XviD
Duration                         : 1h 55mn
Bit rate                         : 1 599 Kbps
Width                            : 720 pixels
Height                           : 304 pixels
Display aspect ratio             : 2.35
Frame rate                       : 25.000 fps
Resolution                       : 24 bits
Colorimetry                      : 4:2:0
Scan type                        : Progressive
Bits/(Pixel*Frame)               : 0.292
Stream size                      : 1.29 GiB (92%)
Writing library                  : XviD 50

Audio
Format                           : MPEG Audio
Format version                   : Version 1
Format profile                   : Layer 3
Codec ID                         : 55
Codec ID/Hint                    : MP3
Duration                         : 1h 55mn
Bit rate mode                    : Constant
Bit rate                         : 128 Kbps
Channel(s)                       : 2 channels
Sampling rate                    : 44.1 KHz
Resolution                       : 16 bits
Stream size                      : 105 MiB (7%)
Alignment                        : Split accross interleaves
Interleave, duration             : 40 ms (1.00 video frame)
Interleave, preload duration     : 500 ms



NOTES:

IMAGiNE bringing you another release.....The Twilight Saga Eclipse

First of sources used .....russian cam by Elektri4ka,cam by DarkInnocence and audio by TA......Many
thanks to all for these sources
Quality....well we used the russian video as the main source as it was better than the other version.Still had issues
like glares,rgb problems missing footage and what not.
The DarkInnocence video was of a lower quailty both res and bitrate but did have the intro so we used this for that only.
The audio was some sweet line from our good friends TA
Work done ...well first needed to cut the intro,almost 2mins off the darl inn cam and then needed to crop and resize it to match
our main encode.
Once done it was onto the russian video this needed some TLC and we tried to balance the rgb colours out but in certian parts
the colouring looks a little off but that due to the source changing colours slightly throughout.
We also lowered the glare as much as possible without it looking grey and washed out.Also messed with the brightness and contrast
and used a smoother aswell and a touch of sharpness.
Oh and also the first 14mins of the russian cam had some camera movements so there was black borders top and bottom,so we had to crop and
resized that aswell so AR might be slight off for that part.
Once both videos were done we muxed them together and then went onto syncing the line audio we had ....

Now we have full line audio inc audio from before the film starts and until the very end and all that was missing is 26secs at the very begining...
which at this point isn't on any other video so .....not alot we can do about that.Otherwise this is complete






The Twilight Saga: Eclipse / Saga Zmierzch: Zaćmienie (2010) TS XViD - IMAGiNE
The Twilight Saga: Eclipse / Saga Zmierzch: Zaćmienie (2010) TS XViD - IMAGiNE
The Twilight Saga: Eclipse / Saga Zmierzch: Zaćmienie (2010) TS XViD - IMAGiNE
The Twilight Saga: Eclipse / Saga Zmierzch: Zaćmienie (2010) TS XViD - IMAGiNE
The Twilight Saga: Eclipse / Saga Zmierzch: Zaćmienie (2010) TS XViD - IMAGiNE






NAJLEPSZA DOSTĘPNA JAKOŚĆ W SIECI
SPRAWDZONY UPLOAD NA SZYBKIM SERWERZE
POLECAM!




Aby zobaczyć ukryty tekst musisz być zalogowany, jeżeli nie masz konta zarejestruj się!



Podziel się !

Delicious'da Share  Share on Facebook  Friendfeed Share  Google Shared  StubmleUpon'da Share  Digg'de Share  Netvibes'de Share  Reddit'de Share RSS Feeds Subscribe!

Powrót
Przeglądasz witrynę jako gość.
Dlatego zachęcamy do rejestracji lub do zalogowania się.

Informacja
Użytkownicy z rangą Gość nie mogą dodawać komentarzy.