Menu

Download

Polub nas!
Online
W ostatnich 24 godzinach odwiedziło nas 14085 użytkowników w tym 3967 zalogowanych oraz 10118 gości. Obecnie serwis przegląda 389 użytkowników, w tym 187 zalogowanych.
01012005, 1marek1, 1pz, 1smoku, aaapsik150, agenor22, Akacja2000, alicat, Amarativ, Ambasadoor70, andrzejpfx, Anita2708, Arraez, awerskto, b777, BartoszW, bianga, bigmlody, blinder, bodic, bogdan85, bookoo, bububu07bu, Budrys_1, bufo, bulgoc, chandler73, christina2013, colossus1, communismsucks, conbass1, cris2111, cyga78, czakaboy, delta37, denatka, dpdsbd, drajwer12, dziuleczek, Edison24, Edko, EFBOT, eisone22, elektrikos, enzoropniak, Finder, Foska, foto_max, gabaszo, gabya, Gangut,  garadhei, goth74, greg180866, groobas, halexh, hansu1, hermar7, interek, jack85, jadziagitbachan, janboo, jaszczur666, Jazz_1963, joker536, ka21trin, kacper55555, kaczor696, KarolSz, karsa1975, keraddd, kkarpinski, klara1, korek85, kosmosek, Kostropaty, kozak89, kreos, Kris77, Krysztal58, krzoku76, krzysiekss, krzysiu123, kuba1125, kubator78, KUG66, KUGU, kzm_neo, lihu, lirycman, lobo75, lockeabr2, loless0,  Looner, lordgbyron, macaga, maciej6353, MAKALAS, Maku47, Manipulatio, marc1234eli, marcel8625, marian2010, marios53, marqs68, matwill, metlife, michu0025, Mikolajmg, mirant, Misque, mistrzjarek, mitsui, moor, mortek254, mpisar1, mpkes, myk, nabis2, nakuru17, nemles, nikiel, okonalfa, OllaMac, Palmrad, pawel0027, pawelppr, pitercom, pitereku, POrlik, Potter, Premium_Kosa, proletariat, przem50, PSINA138, QWADRA, ra88, rdz12, rewind, Rifafa, robo1967, Rokita, roksa, romank0, ross154, ruhocz, rw57, sir daro 24, slasmo, Sobokan, spider5329, spocony, spoli, stanislawblach, strzalka7, stuurman1, tankred22, tedik4, TomaszA, tomb, tomcio69, turban25, ultraselect, unoroberto, Valgard, virginiaa, vladix, waldekk3, waldi6278, waleczny1, waz171, whisky65, wojciechrobert, wojtekx 321, wojts444, za100s, zbychw, zbyszek1408, Zelwik, ziec, zielcok, Ziom3k, Zioxal, zly664, zorbaq, zulus7,  _grrr
Najgoretsze wstawki


Autor: Smeak
Data: 23 Maj 2010
Kategoria: FILMY » Zagraniczne
0


How To Train Your Dragon (2010) TS XviD - KiNGDOM
Cały film w jednym linku

How To Train Your Dragon (2010) TS XviD - KiNGDOM



### INFO ###


Format                           : AVI
File size                        : 700 MiB
Duration                         : 1h 25mn
Overall bit rate                 : 1 138 Kbps
Writing application              : VirtualDubMod 1.5.10.2 (build 2542/release)
Video
Format settings, QPel            : No
Format settings, GMC             : No warppoints
Codec ID                         : XVID
Bit rate                         : 1 000 Kbps
Width                            : 640 pixels
Height                           : 272 pixels
Display aspect ratio             : 2.35:1
Frame rate                       : 25.000 fps
Stream size                      : 615 MiB (88%)
Audio
Codec ID/Hint                    : MP3
Bit rate mode                    : Constant
Bit rate                         : 128 Kbps
Channel(s)                       : 2 channels
Sampling rate                    : 48.0 KHz
Stream size                      : 78.7 MiB (11%)





### SCREEN ###


How To Train Your Dragon (2010) TS XviD - KiNGDOM




| Najlepsza dostępna jakość w sieci! |
| Sprawdzony upload na szybkim serwerze |
| Cały film w jednym linku |




How To Train Your Dragon (2010) TS XviD - KiNGDOM
Aby zobaczyć ukryty tekst musisz być zalogowany, jeżeli nie masz konta zarejestruj się!



Podziel się !

Delicious'da Share  Share on Facebook  Friendfeed Share  Google Shared  StubmleUpon'da Share  Digg'de Share  Netvibes'de Share  Reddit'de Share RSS Feeds Subscribe!

Przeglądasz witrynę jako gość.
Dlatego zachęcamy do rejestracji lub do zalogowania się.

Informacja
Użytkownicy z rangą Gość nie mogą dodawać komentarzy.