Menu

Download

Polub nas!
Online
W ostatnich 24 godzinach odwiedziło nas 7845 użytkowników w tym 3637 zalogowanych oraz 4208 gości. Obecnie serwis przegląda 312 użytkowników, w tym 161 zalogowanych.
1950a, a-two, adaga77, adamski641, Adrian23, Akacja2000, alchemica1971, and20, andrzejf, andy003, anex2, Angiemangie, aparatt, ar2rga, asab, ayway, bankjob, barera789, barinoshrek, barszczufcb, basiamariusz2, biedronka53, Bjorn1967, black2jack, Bodzionex, bunia2711, buraczek54, cayenne, cd-n, certina, Cypol, czesiek1964, dark apostle, darocz, divxon, donnvitopasza, dony32, dunaj2, dzadza0071, edward49, EFBOT, em2be, eror007, ewemar, fercompis, fikołek, Flashek1, Forest89, goralzak, gradeksr, gregorian, groveider, Grzegorz18, Grzegorz72, gulczi78, harrold0, hrvat1, jacobs, jadzia, Jarexy, Jazz_1963, johnny4321, kabanos1947, kair77, kaktus68, kamiloo9090, kariatyda50, kgrzeko, kinamj, kopi445, kozioler, kriss86pl, krzych76, krzysiek_1963, leoo, Lukjab, Machoni111, maja1313, malezlo22, maniek7255, Manipulatio, MarcoPolo, Mario1545, mariuchen1976, marsjanin76, mazzarot, milosz317, miraz, misiek7306, MMarek79, Moni0107, mp3de, muniango, m_axi, Nimrod-PW, Nowy_MP, nulpi, Olala86, Onen, ossy, papay100, papuga99, pavlito, pbpbpbpbpb, pedrox111, pentero, pios, piotr711, piotur, pitrekssj2, psalms, pspgame, ptaszysko1, pudlisz, pyra1987, PYRUS, pyzdra525, QBASSOS, qqq, radson0404, rammos, rdsxfi, richmond, Rifafa, robertini1, robkam, rodgerrodger, roro2, Ryn37, sara.123, sebad, sebass71, sentio, sevilla111, shadow1602, siwysar, skalarltd, stopa7, Svilesis, tankred22, tarzan79, tech2010, tiamat997, tobiasz1989, tomcio69, tomek1986, tomkaj1, tree, Trton102, tufton, wiechu69, zabiello, zasraniec, zenon dankowski, zetowicz, Zeusik1, zibi19979, zolnik1984, zxc74, zybi73, zylasty
Najgoretsze wstawki


Autor: Smeak
Data: 23 Maj 2010
Kategoria: FILMY » Zagraniczne
0


How To Train Your Dragon (2010) TS XviD - KiNGDOM
Cały film w jednym linku

How To Train Your Dragon (2010) TS XviD - KiNGDOM



### INFO ###


Format                           : AVI
File size                        : 700 MiB
Duration                         : 1h 25mn
Overall bit rate                 : 1 138 Kbps
Writing application              : VirtualDubMod 1.5.10.2 (build 2542/release)
Video
Format settings, QPel            : No
Format settings, GMC             : No warppoints
Codec ID                         : XVID
Bit rate                         : 1 000 Kbps
Width                            : 640 pixels
Height                           : 272 pixels
Display aspect ratio             : 2.35:1
Frame rate                       : 25.000 fps
Stream size                      : 615 MiB (88%)
Audio
Codec ID/Hint                    : MP3
Bit rate mode                    : Constant
Bit rate                         : 128 Kbps
Channel(s)                       : 2 channels
Sampling rate                    : 48.0 KHz
Stream size                      : 78.7 MiB (11%)





### SCREEN ###


How To Train Your Dragon (2010) TS XviD - KiNGDOM




| Najlepsza dostępna jakość w sieci! |
| Sprawdzony upload na szybkim serwerze |
| Cały film w jednym linku |




How To Train Your Dragon (2010) TS XviD - KiNGDOM
Aby zobaczyć ukryty tekst musisz być zalogowany, jeżeli nie masz konta zarejestruj się!



Podziel się !

Delicious'da Share  Share on Facebook  Friendfeed Share  Google Shared  StubmleUpon'da Share  Digg'de Share  Netvibes'de Share  Reddit'de Share RSS Feeds Subscribe!

Powrót
Przeglądasz witrynę jako gość.
Dlatego zachęcamy do rejestracji lub do zalogowania się.

Informacja
Użytkownicy z rangą Gość nie mogą dodawać komentarzy.