Menu

Download

Polub nas!
Online
W ostatnich 24 godzinach odwiedziło nas 9699 użytkowników w tym 4255 zalogowanych oraz 5444 gości. Obecnie serwis przegląda 587 użytkowników, w tym 432 zalogowanych.
1smoku, 27krzysiek, 50gc2h5oh, aabbcc123, abracham, adam1neo, adamg6, adocyn, agafia89, ahura.mazda, akarek, allek14, Alworthy, ander20, Anders87, andiro11, andjey, andreo56, Andry772, angelo1969, aniciora, anitarka56, Anoushka, aparatt, arkrawt, Arrow27, art152747, Artixon, arturkrawczyk1, ARTUROSE, Askalon, assasin1983, ata2, atomek40, atw0, Aurelia, Avareon, awarrow, ayway, azjass, azzazel, bajarz, banan67, barabba, barinoshrek, bart85, barteckig, bartek1, bartolomeo, bee, belgado, BigBoss, bogdan85, borgdron, bricklayer, bulgoc, bumszakalaka, burana25, bydgoszcz22, c7777, cacumen, cezary3, CezaryW, Chemik1999, chesterlg, christina2013, chrum, Chudyk007, coala, colossus1, conbass1, cwks38, czaro_1234, czasnasen1, czesie_k, czesiosklad, dahmon1, Dansi, Dawid88Diablo, DEATHMETALOWIEC, delta37, demon190219, denver, dermickerone, devill13, dexx30, didek11, divxworld, dominik04, dominik_vorek, dominous, DonCabeza, Dorina, dr4xe, dreamteamx, Dudzi19, dv3, dyziu_, dziala777, dzobi, ebooktp, EFBOT, El Rey, elektrikos, elew77, elfalumfa, ElFi, elkmare, ElteG, em2be, Emilja, erolino, eronin, feniks11, fenix66, foczka, Forest89, Forto, franz721, gada40, geniusloci, gienaluj, gildor,  glauthor, gofer57, goka77, grandfather, graszka, grifos, Grzegorz72, Grzesinski, grzewich, gunot0, gzo29, hapa2, harcmistrz, harkw, haronx, hermar7, himik, hooma, ice2133, imhootep, insom, isengard, ivka75, jaceksam, jacekza, jacki99, jadzia, jak63, janek60, jankoal, jannowa, JanOrzeł, Janwiki67, jareksu, jarek_10, jargo61, jarod_e, jarry252, jaszczur45, Jazz_1963, Jeorge, jezynko, jijjij, jnw666, joannaczy, johnyj23, jonas10, Joosca, jszlom, Jucia83, jupikrzys, kabanos1947, kadarbar, kajtek42, kamilgolas93, Kapelusznik, kevin2006, Khadif, kiciuch, Kiciur, kika2413, kimo1, kinamj, Kindziukpl, kion1, kkrammer, kololuk, kolorko, krepel, kriskut, kruk134, kryhol, kryko75, krzysd2, kwiatekjan, kwiryn, kyrmit, lainer, leniu, leonadam, liber166, Lina, lipa64, lm555, loless0, look78, lordgbyron, Luc4sec, luck30, lukaszo_93, Luke160, mach12, macigo, magazyn, magik020, MAKALAS, malanov, Mania22, Manipulatio, Mantiseczek, manuelmuchow, Maqis, marcin.strzesniewski, marcin790, MarcoPolo, marepol60, mariant, mario.g, Mars228, martel, martini_beta, maruda55, Mat71, mateoosh1899, mateusz79531, mateuszdwo, mauritius1972, Mayk3, McWilku, Merciaiwiki, mercurium, metal102, mguruaa, michegun, microm, MieciaC, mietek333, miki84, mikrobert, Mir24, mirmil72, mis, misiu1185, MiSz, mitsui, mkkm111, Monika0122, mrbah025, mrowa777, Msrd, Mucha01, muflon83, muslee, nakuru17, nandu, neblinka, Nieqmaty, nikofor, nosmo, obiadek, olo62, olorin2, osa31, ossy, otakesan, Ozyr, Pablo811, pankiller3, Panx, panzerwolf666, papay100, pawel0027, pentero, peter2605, pfm1, piat, pigularz, Pimek, pinokio79, pionierVR, pios, pipcia, pirek66, pitereku, plas_tek, pmateusz.1987, polo007, Ponyjkat, PorterPL, potomac, Premium_Kosa, przemek.c, psalms, pspgame, ptaszek1, pyzdra525, QBASSOS, quatron, Quppa, radzik13, rafacus, rafalbrutal, rafroz1, ramaja, ramon, Ramones1971, rdsxfi, rej212, robertini1, robkam, robo1967, roboprint, roko25, roksa, roman.gator, romasq123, roro2, ross154, roxikoxi, rs232, Ryuzaki1, Saanm, sajnek, sandacz53, Sangdela, sebasss, selwis, senior2405,  Seren, serrafus, shadow1602, SHASOKAIS, Shirei, siny181, siwysar, skarabeusz, Smalec, SmoQ84, sokol01, song19, spamaccount34, speedway13, spoli, Stan63, stoper3, Stronniczy, strzyga7, su37, Svilesis, szczykawka, szeryfkite, szpak, szpotawa, szrek1977, szwed-ws, szyszka1993, Ściągacz, taczka1, Taleczka, tatanka, tedybear, Tehawanka1234, telegreka, termoso2013, toj87, tomal_t, tomcio69, tomkaj1, tommil2101, topikos, trebugas, Trton102, truska07, twist79, ulakrasula, Unknownartist, urbi9, Uszat30, vangelis, VIK.I, waldemar morawiec, wdul, westgreg, whisky65, wiesiomajster, Wieslaw3, wilkus66, winnie, witol, wkitbob, wodan2a4, wojtekx 321, wplwl, wsjs, wujekstaszek, wypyszekk, Yareck80, yoyomu, yukon, yupiter69, zabka1234, zak19, zalew76, zand1965, zarber, Zastrzeżony, zawodnik, zaza, zbyszek1408, zbyszekj1, Zeef, zenolopka, ZenonMal, zetowicz, ziec, zlymumin, Zolwik1922, zombislaw, zylasty
Najgoretsze wstawki


Autor: Smeak
Data: 23 Maj 2010
Kategoria: FILMY » Zagraniczne
0


How To Train Your Dragon (2010) TS XviD - KiNGDOM
Cały film w jednym linku

How To Train Your Dragon (2010) TS XviD - KiNGDOM



### INFO ###


Format                           : AVI
File size                        : 700 MiB
Duration                         : 1h 25mn
Overall bit rate                 : 1 138 Kbps
Writing application              : VirtualDubMod 1.5.10.2 (build 2542/release)
Video
Format settings, QPel            : No
Format settings, GMC             : No warppoints
Codec ID                         : XVID
Bit rate                         : 1 000 Kbps
Width                            : 640 pixels
Height                           : 272 pixels
Display aspect ratio             : 2.35:1
Frame rate                       : 25.000 fps
Stream size                      : 615 MiB (88%)
Audio
Codec ID/Hint                    : MP3
Bit rate mode                    : Constant
Bit rate                         : 128 Kbps
Channel(s)                       : 2 channels
Sampling rate                    : 48.0 KHz
Stream size                      : 78.7 MiB (11%)





### SCREEN ###


How To Train Your Dragon (2010) TS XviD - KiNGDOM




| Najlepsza dostępna jakość w sieci! |
| Sprawdzony upload na szybkim serwerze |
| Cały film w jednym linku |




How To Train Your Dragon (2010) TS XviD - KiNGDOM
Aby zobaczyć ukryty tekst musisz być zalogowany, jeżeli nie masz konta zarejestruj się!



Podziel się !

Delicious'da Share  Share on Facebook  Friendfeed Share  Google Shared  StubmleUpon'da Share  Digg'de Share  Netvibes'de Share  Reddit'de Share RSS Feeds Subscribe!

Przeglądasz witrynę jako gość.
Dlatego zachęcamy do rejestracji lub do zalogowania się.

Informacja
Użytkownicy z rangą Gość nie mogą dodawać komentarzy.