Menu

Download

Dziś nas odwiedzili:
Archiwum:
Grudzień 2016 (466)
Listopad 2016 (2437)
Październik 2016 (1965)
Wrzesień 2016 (1859)
Sierpień 2016 (2523)
Lipiec 2016 (2609)


Pokaż wszystkie tagi:
Wejścia na Vorek.pl z:
{referer}



NABÓR NA STANOWISKO


MODERATOR        UPLOADER

Autor: Smeak
Data: 22 Maj 2010
Kategoria: FILMY » Zagraniczne
0


A Nightmare on Elm Street (2010) Proper TS XviD LKRG

A Nightmare on Elm Street (2010) Proper TS XviD LKRG



###Info###

http://www.imdb.com/title/tt1179056/
General Information
Video
ID : 0
Format : MPEG-4 Visual
Format profile : Advanced [email protected]
Format settings, BVOP : Yes
Format settings, QPel : No
Format settings, GMC : No warppoints
Format settings, Matrix : Default (H.263)
Codec ID : XVID
Codec ID/Hint : XviD
Duration : 1h 30mn
Bit rate : 1 017 Kbps
Width : 680 pixels
Height : 380 pixels
Display aspect ratio : 2.2:1
Frame rate : 29.970 fps
Resolution : 8 bits
Colorimetry : 4:2:0
Scan type : Progressive
Bits/(Pixel*Frame) : 0.131
Stream size : 657 MiB (85%)
Writing library : XviD 1.2.1 (UTC 2008-12-04)
Audio
ID : 1
Format : MPEG Audio
Format version : Version 1
Format profile : Layer 3
Codec ID : 55
Codec ID/Hint : MP3
Duration : 1h 30mn
Bit rate mode : Constant
Bit rate : 160 Kbps
Channel(s) : 2 channels
Sampling rate : 48.0 KHz
Video delay : 33ms
Stream size : 103 MiB (13%)
Alignment : Aligned on interleaves
Interleave, duration : 24 ms (0.72 video frame)
Interleave, preload duration : 504 ms
Writing library : LAME3.98.2




###Screen###

A Nightmare on Elm Street (2010) Proper TS XviD LKRG



| NAJLEPSZA JAKOŚĆ W SIECI! |
| Sprawdzony upload |
| Tylko jeden link! |



A Nightmare on Elm Street (2010) Proper TS XviD LKRG
http://extabit.com/file/28emdckbcue56/



Podziel się !

Delicious'da Share  Share on Facebook  Friendfeed Share  Google Shared  StubmleUpon'da Share  Digg'de Share  Netvibes'de Share  Reddit'de Share RSS Feeds Subscribe!

Powrót
Przeglądasz witrynę jako gość.
Dlatego zachęcamy do rejestracji lub do zalogowania się.

Informacja
Użytkownicy z rangą Gość nie mogą dodawać komentarzy.