Menu

Download

Polub nas!
Online
W ostatnich 24 godzinach odwiedziło nas 9380 użytkowników w tym 4183 zalogowanych oraz 5197 gości. Obecnie serwis przegląda 322 użytkowników, w tym 193 zalogowanych.
049w, adek 8873, agaaki, agusienkaa, albercik82, andiro11, andreas1166, andres3900, andrzej-44, Andrzej.kl, ap129,  Armaros, art152747, atw0, Aurelia, avator, bateryjka, bee, bodic, bodzio9, bogdan85, branke, brutal_truth, bulgoc, burana25, CezaryW, choligan, christina2013, colossus1, conbass1, cordis89, cr68, ctx, cymeryjczyk, czarnaewa, czaro22, czytelnicze, dafcio, dalib, DAMIAN1129, Danio73, darcon75, darekbus, dareklo, dedalus86, dedarco, dominik_vorek, dominous, dreju, EFBOT, eisone22, Elagiza, elektrikos, erik12, Eviaczek, Ewazia, fenix66, fercompis, FerryH, first person, franz721, Gangut, garadhei, gosia6021, grzesiek1122, hermar7, hidden, homikwwannie, imanewbie, Infernalista, irenek, Jackhe, jacoco, jankesiczek, jaros7, jaxa007, jszlom, Jucia83, ka21trin, Kalory, kashanka, kazik19, kimo1, kkk244240, kocin7, Koki25, kololuk, kozak89, krzyskap, legenyes, LimbA, lirycman, lukin, magik020, mahone78, Mania22, mar33335, marcin.strzesniewski, marcin790, MarekHH, marekjed, mario-k, marionet, marisj, markowens, Marmax, martel, Martinez, mastermindssj2, mat2ylda, matistreet, mauritius1972, mcmay, mercurium, miro286, misiakov, misimisi, mistrzjarek, mjackowski, mjm, mp3de, mpisar1, mpkes, nakuru17, net244, oldgreg, optiva11, ossy, parman, pawel0027, pawel19_1992, piotrpp42, piotrus55, piotur, piter1985, piterd14, podjanaszek123, Polki, POrlik, Premium_Kosa, przemograf, psychobart, pyzdra525, qavqa, QBASSOS, qspy, ra88, rafacus, rdsxfi, redoker77, rekinusek, ritop, Robertnss, robo1967, robus271, roro2, ross154, rumoren, ruptak, s1_supervisor, Sawran, schnikers, sebastianpieta, silesiaman, sir daro 24, sirac, szpotawa, tevez110, tomb, TomikDC, tomkaj1, topikos, toreros, trechniś, truska07, tufton, tyczkens1, V8torrent, ValNar, varnus, virginiaa, vorek5555, vvikig, whisky65, witol, wlad2207, wojtekx 321, Xentrix, Yareck80, yuka77, zebra135, Zelwik, zyga11
Najgoretsze wstawki


Autor: Smeak
Data: 21 Maj 2010
Kategoria: FILMY » Zagraniczne
0


Shrek Forever After (2010) CAM -ELEKTRI4KA

Shrek Forever After (2010) CAM -ELEKTRI4KA



###Info###

General
Complete name                    : Shrek Forever After.2010.CAM.RUS-ELEKTRI4KA_RlsToday.net.avi
Format                           : AVI
Format/Info                      : Audio Video Interleave
File size                        : 699 MiB
Duration                         : 1h 20mn
Overall bit rate                 : 1 213 Kbps
Movie name                       : Shrek Forever After (2010)
Director                         : ELEKTRI4KA
Writing application              : VirtualDubMod 1.5.10.2 (build 2540/release)

Video
ID                               : 0
Format                           : MPEG-4 Visual
Format profile                   : Advanced [email protected]
Format settings, BVOP            : Yes
Format settings, QPel            : No
Format settings, GMC             : No warppoints
Format settings, Matrix          : Default (H.263)
Codec ID                         : XVID
Codec ID/Hint                    : XviD
Duration                         : 1h 20mn
Bit rate                         : 1 075 Kbps
Width                            : 720 pixels
Height                           : 304 pixels
Display aspect ratio             : 2.35:1
Frame rate                       : 25.000 fps
Resolution                       : 8 bits
Colorimetry                      : 4:2:0
Scan type                        : Progressive
Bits/(Pixel*Frame)               : 0.196
Stream size                      : 620 MiB (89%)
Writing library                  : XviD 1.2.1 (UTC 2008-12-04)

Audio
ID                               : 1
Format                           : MPEG Audio
Format version                   : Version 1
Format profile                   : Layer 3
Codec ID                         : 55
Codec ID/Hint                    : MP3
Duration                         : 1h 20mn
Bit rate mode                    : Constant
Bit rate                         : 128 Kbps
Channel(s)                       : 2 channels
Sampling rate                    : 48.0 KHz
Stream size                      : 73.8 MiB (11%)
Alignment                        : Aligned on interleaves
Interleave, duration             : 40 ms (1.00 video frame)
Interleave, preload duration     : 504 ms
Writing library                  : LAME3.98r
Encoding settings                : -m s -V 4 -q 2 -lowpass 17 -b 128




###Screen###

Shrek Forever After (2010) CAM -ELEKTRI4KA




| NAJLEPSZA JAKOŚĆ W SIECI! |
| Sprawdzony upload |
| Szybki serwer |



Shrek Forever After (2010) CAM -ELEKTRI4KA
http://extabit.com/file/28emdckbc7azu/



Podziel się !

Delicious'da Share  Share on Facebook  Friendfeed Share  Google Shared  StubmleUpon'da Share  Digg'de Share  Netvibes'de Share  Reddit'de Share RSS Feeds Subscribe!

Przeglądasz witrynę jako gość.
Dlatego zachęcamy do rejestracji lub do zalogowania się.

Informacja
Użytkownicy z rangą Gość nie mogą dodawać komentarzy.