Menu

Download

Dziś nas odwiedzili:
Mlody12478, CCC59KXJ, adamusasior122, tomaszek24, bialekfotografia, scorpions793, smoksmok31, bardini, traco, artfrst, levy52, panradzio, majag88, kacper2008, tomex2u, lopez76, marcin_marcin, gasior932, Krzysztof1973, sita1204, waawr, pika01, skyluk, kanapkatorpedo, darekgl1968, MechoTV, Max Killer, solgerx, stanisław, jarek861029, siwy710, tomzam, and20, saper7206, GunHead, hardcore3791, zenszol, bastion4, fazzy99, slay25, geniu7, gwidon1981, kendzior94, harisa95, duninek16, Raf.36, inesimariusz, DeejayMalec, terry258, Auto-Lux, yonk, jacekgmk, johnyb70, JoXs, KECAJ_18, topolski, ulaghost, Ashigari, pbpbpbpbpb, lonej1, snikers77, renka, eree, Proton_1x, xxvxx5, MarczelM, pitereku, ciawek, Liar, igi2, chemik638, bowe1969, amfetaminka, jedrek00711, mogo76, edmund54, elasuc, Fedor11, pysiu_m, Grzegorz72, sproket1, klymvm, Andi-diesel, kodotorrva, JurekO, bulkotnik, cybulx, priv, mahone78, niasiaguntos, tomek i ania, lukaszek17, -julius-, sandacz53, szukisek, marcindziki1, mwita3, rumak83, eneasz, zbeer, bokser123, slabin, buku54, ravler89, zachod25, nowmarek, trigall, ango, mach12, cze, Mario090673, wloodo, aka93, demon190219, misek1, miecio28, ralf1976, jacolcom, pentor, gbur17, jurek50, tomaszo1948, pawel97, szturmen, narkusdwa, malczyce, piterd14, szakal, dulo123, mks, jupkeennss, rutkowski20, waldek77, gerard, qczi, adikos34, topikos, Feniks101, enigma1952, adam101102, bokkosa, supperbin, lukasz10051, Matthew67, osa31, sowiczi, zakopne, weenzer, pucini, papay100, darekbus, jpwko, buba48, pixel1194, mrozek8, mamata, keram, virginiaa, matey777, baraxx, danix20, wfman, drls1989, Krakus51, adox80, trez, lauratcv, Sarima, marian1999, aspekt2004, mobil199, kajtek42, lyser, mariant, LeoMarkus, jinks13, posejdon, Sdrov, wojtasg, ASTERGO, wotar, lordsiur, lepper, Painkiller212, rencista39, arkadiusz271, crownart, sayo300, krepel, andy08, monisia5, spoli, miodowe, mondia, Sypi, jeak, krys49, grygol2, misiu1185, symoni2008, Manias01, Lukas8, kamelot2012, Uszka2001, RUFO, maciej1900, fox57, kudek01, jerry1013, tedxvs, pipipiotr, konradko77, margaretka62, elwro, zibim, splittt, ryszardos69, tobi180, jano666, jusia266, pepik11, kat666, krewetka105, biggreg, Cirrus, xard2906, piotrek38, Beno182210, Kwiatek2009, alex, skarabeusz, Bartekn90, andjey, Vanisz, angelo1969, celin, mp3de, Zelwik, brovarek123, P.P.P., jarecki500, maruda3773, bazumi20, EdiMar, joanna72, aj 1971, ewa1971, Erik, Kamirllo105, mariusz242, skajla, Mussstaaang, ggtomy, secundus, Seba1984r, EFBOT, cris2111, Johanson325, Anastazja001, Svilesis, jurczyna, Trytonik, karbor83, momo1410, akak1, vasiwasyl

Archiwum:
Grudzień 2016 (763)
Listopad 2016 (2434)
Październik 2016 (1961)
Wrzesień 2016 (1857)
Sierpień 2016 (2521)
Lipiec 2016 (2605)


Pokaż wszystkie tagi:
Wejścia na Vorek.pl z:
{referer}



NABÓR NA STANOWISKO


MODERATOR        UPLOADER



How To Train Your Dragon (2010)

How To Train Your Dragon | TS XViD | 400mb

A hapless young Viking who aspires to hunt dragons becomes the unlikely owner of a young dragon himself, and learns there may be more to the creatures than he assumed.
Meet Hiccup Horrendous Haddock III, heir of the Viking chiefdom, but a boy with one very big problem: a hero he is not. "How to Train Your Dragon' is the riotous story of Hiccup's quest to hunt down the fiercest dragon, bring it into submission, and-hopefully-pass his initiation. Instead, he ends up with the smallest, most ornery dragon-it's even toothless! Thus begins the hijinx of the world's most lovable, unlikely hero and a most reluctant "beast." Packed with energetic drawings and plenty of action, this boisterous tale is just right for fantasy fans or anyone with a spirit of adventure. Based on the book by Cressida Cowell.

How To Train Your Dragon (2010)

How To Train Your Dragon (2010)

How To Train Your Dragon (2010)

Format : AVI
File size : 400mb
Duration : 1h 25mn
Overall bit rate : 1 138 Kbps
Writing application : VirtualDubMod 1.5.10.2 (build 2542/release)

Video
Format settings, QPel : No
Format settings, GMC : No warppoints
Codec ID : XVID
Bit rate : 1 000 Kbps
Width : 640 pixels
Height : 272 pixels
Display aspect ratio : 2.35:1
Frame rate : 25.000 fps
Stream size : 615 MiB (88)

Audio
Codec ID/Hint : MP3
Bit rate mode : Constant
Bit rate : 128 Kbps
Channel(s) : 2 channels
Sampling rate : 48.0 KHz
Stream size : 78.7 MiB (11)

Download:
Aby zobaczyć ukryty tekst musisz być zalogowany, jeżeli nie masz konta zarejestruj się!



Podziel się !

Delicious'da Share  Share on Facebook  Friendfeed Share  Google Shared  StubmleUpon'da Share  Digg'de Share  Netvibes'de Share  Reddit'de Share RSS Feeds Subscribe!

Powrót
Przeglądasz witrynę jako gość.
Dlatego zachęcamy do rejestracji lub do zalogowania się.

Informacja
Użytkownicy z rangą Gość nie mogą dodawać komentarzy.