Menu

Download

Dziś nas odwiedzili:
Archiwum:
Grudzień 2016 (392)
Listopad 2016 (2437)
Październik 2016 (1965)
Wrzesień 2016 (1859)
Sierpień 2016 (2523)
Lipiec 2016 (2609)


Pokaż wszystkie tagi:
Wejścia na Vorek.pl z:
{referer}



NABÓR NA STANOWISKO


MODERATOR        UPLOADER

Autor: Smeak
Data: 18 Maj 2010
Kategoria: FILMY » Zagraniczne
0


Iron Man 2 TS READNFO V2 XViD - IMAGiNE


Iron Man 2 TS READNFO V2 XViD - IMAGiNE



###Info###

*********** ****    ****      ***      ******** *********** ****    *** **********
          *+*     +*+*+* *+*+*+   *+* *+*   *+*    *+*    *+*     *+*+*   *+* *+*      
          +*+     +*+ +*+*+ +*+  +*+   +*+  +*+           +*+     *+*+*+  +*+ +*+      
          +$+     +$+  +*+  +$+ +$++*++$++* *$*           +$+     +$+ +*+ +$+ +$++*++$
          +$+     +$+       +$+ +$+     +$+ +$+   +$+$    +$+     +$+  +$+$+$ +$+      
          $+$     $+$       $+$ $+$     $+$ $+$    $+$    $+$     $+$   $+$+$ $+$      
      $$$$$$$$$$$ $$$       $$$ $$$     $$$  $$$$$$$$ $$$$$$$$$$$ $$$    $$$$ $$$$$$$$$$  
                                              



                          Another Fine Release Brought to you from - IMAGiNE                
                                                http://imaginegroup.me/

********************************************************************************************************************                              
                                       Iron Man 2 TS READNFO V2 XViD - IMAGiNE
********************************************************************************************************************

Ripper ...........:IMAGiNE                                        IMDB Rating.......:7.9/10                          
Video Codec.......:XVID                                         Release Date......:12/05/10
Audio Codec.......:MP3                                           Theatre Date......:07/05/10
Audio Bitrate.....:128                                              Runtime.......:1h 57mn
Subtitles.........:ENG                                                 Language..........:ENGLISH
Resolution...... 720 x 304                                      IMDb URL..........:http://www.imdb.com/title/tt1228705/


DETAILS:

Video
Format                           : MPEG-4 Visual
Format profile                   : Streaming [email protected]
Format settings, BVOP            : Yes
Format settings, QPel            : No
Format settings, GMC             : No warppoints
Format settings, Matrix          : Default
Muxing mode                      : Packed bitstream
Codec ID                         : XVID
Codec ID/Hint                    : XviD
Duration                         : 1h 57mn
Bit rate                         : 1 610 Kbps
Width                            : 720 pixels
Height                           : 304 pixels
Display aspect ratio             : 2.35
Frame rate                       : 23.976 fps
Resolution                       : 24 bits
Colorimetry                      : 4:2:0
Scan type                        : Progressive
Bits/(Pixel*Frame)               : 0.307
Stream size                      : 1.32 GiB (92%)
Writing library                  : XviD 50

Audio
Format                           : MPEG Audio
Format version                   : Version 1
Format profile                   : Layer 3
Codec ID                         : 55
Codec ID/Hint                    : MP3
Duration                         : 1h 57mn
Bit rate mode                    : Constant
Bit rate                         : 128 Kbps
Channel(s)                       : 2 channels
Sampling rate                    : 44.1 KHz
Resolution                       : 16 bits
Video delay                      : 350ms
Stream size                      : 107 MiB (7%)
Alignment                        : Split accross interleaves
Interleave, duration             : 42 ms (1.00 video frame)
Interleave, preload duration     : 500 ms




###Screen###

Iron Man 2 TS READNFO V2 XViD - IMAGiNE
Iron Man 2 TS READNFO V2 XViD - IMAGiNE




| NAJLEPSZA JAKOŚĆ W SIECI! |
| Sprawdzony upload |
| Szybki serwer |



Iron Man 2 TS READNFO V2 XViD - IMAGiNE
http://www.sharingmatrix.com/file/5308275/Iron_Man_2_TS_READNFO_V2_XViD_-_IMAGiNE.avi.part1.rar
http://www.sharingmatrix.com/file/5308287/Iron_Man_2_TS_READNFO_V2_XViD_-_IMAGiNE.avi.part2.rar
http://www.sharingmatrix.com/file/5308297/Iron_Man_2_TS_READNFO_V2_XViD_-_IMAGiNE.avi.part3.rar
http://www.sharingmatrix.com/file/5308311/Iron_Man_2_TS_READNFO_V2_XViD_-_IMAGiNE.avi.part4.rar



Podziel się !

Delicious'da Share  Share on Facebook  Friendfeed Share  Google Shared  StubmleUpon'da Share  Digg'de Share  Netvibes'de Share  Reddit'de Share RSS Feeds Subscribe!

Powrót
Przeglądasz witrynę jako gość.
Dlatego zachęcamy do rejestracji lub do zalogowania się.

Informacja
Użytkownicy z rangą Gość nie mogą dodawać komentarzy.