Menu

Download

Dziś nas odwiedzili:
Archiwum:
Grudzień 2016 (490)
Listopad 2016 (2434)
Październik 2016 (1961)
Wrzesień 2016 (1857)
Sierpień 2016 (2521)
Lipiec 2016 (2605)


Pokaż wszystkie tagi:
Wejścia na Vorek.pl z:
{referer}



NABÓR NA STANOWISKO


MODERATOR        UPLOADER




Dragon Hunter (2008) 720p bluray x264-thugline

Dragon Hunter (2008) 720p bluray x264-thugline -=UserShare/MegaUpload=-

produkcja: USA
gatunek: Fantasy, Przygodowy
data premiery: 2008-11-05 (Świat)
reżyseria Steve Shimek
scenariusz Steve Shimek
czas trwania: 90


Complete name                    : dragon.hunter.2008.720p.bluray.x264-thugline.mkv
Format                           : Matroska
File size                        : 4.37 GiB
Duration                         : 1h 34mn
Overall bit rate                 : 6645 Kbps
Encoded date                     : UTC 2010-04-11 15:57:46
Writing application              : mkvmerge v3.2.0 ('Beginnings') gebaut am Feb 12 2010 16:46:17
Writing library                  : libebml v0.7.9 + libmatroska v0.8.1
Video
ID                               : 1
Format                           : AVC
Format/Info                      : Advanced Video Codec
Format profile                   : [email protected]
Format settings, CABAC           : Yes
Format settings, ReFrames        : 5 frames
Muxing mode                      : Container [email protected]
Codec ID                         : V_MPEG4/ISO/AVC
Duration                         : 1h 34mn
Bit rate                         : 4977 Kbps
Nominal bit rate                 : 5137 Kbps
Width                            : 1280 pixels
Height                           : 544 pixels
Display aspect ratio             : 2.35
Frame rate                       : 23.976 fps
Resolution                       : 24 bits
Colorimetry                      : 4:2:0
Scan type                        : Progressive
Bits/(Pixel*Frame)               : 0.298
Stream size                      : 3.27 GiB (75%)
Writing library                  : x264 core 92 r1523 25ca5b0
Language                         : English
Audio
ID                               : 2
Format                           : DTS
Format/Info                      : Digital Theater Systems
Codec ID                         : A_DTS
Duration                         : 1h 34mn
Bit rate mode                    : Constant
Bit rate                         : 1 536 Kbps
Channel(s)                       : 6 channels
Channel positions                : Front: L C R, Surround: L R, LFE
Sampling rate                    : 48.0 KHz
Resolution                       : 24 bits
Stream size                      : 1.01 GiB (23%)
Language                         : English


Dragon Hunter (2008) 720p bluray x264-thugline -=UserShare/MegaUpload=-

Dragon Hunter (2008) 720p bluray x264-thugline -=UserShare/MegaUpload=-

Dragon Hunter (2008) 720p bluray x264-thugline -=UserShare/MegaUpload=-

Serwer be limitów! / 100MB Party!

!Można pobierać z 2-óch serwerów na przemian!

Aby zobaczyć ukryty tekst musisz być zalogowany, jeżeli nie masz konta zarejestruj się!




Podziel się !

Delicious'da Share  Share on Facebook  Friendfeed Share  Google Shared  StubmleUpon'da Share  Digg'de Share  Netvibes'de Share  Reddit'de Share RSS Feeds Subscribe!

Powrót
Przeglądasz witrynę jako gość.
Dlatego zachęcamy do rejestracji lub do zalogowania się.

Informacja
Użytkownicy z rangą Gość nie mogą dodawać komentarzy.