Menu

Download

Dziś nas odwiedzili:
Archiwum:
Grudzień 2016 (490)
Listopad 2016 (2434)
Październik 2016 (1961)
Wrzesień 2016 (1857)
Sierpień 2016 (2521)
Lipiec 2016 (2605)


Pokaż wszystkie tagi:
Wejścia na Vorek.pl z:
{referer}



NABÓR NA STANOWISKO


MODERATOR        UPLOADER




Avatar 2009 DVD9 ELEKTRI4KA

Avatar 2009 DVD9 ELEKTRI4KA -=UserShare/MegaUpload=-

produkcja: USA , Wielka Brytania
gatunek: Sci-Fi
data premiery: 2009-12-25 (Polska) , 2009-12-10 (Świat)
reżyseria James Cameron
scenariusz James Cameron
zdjęcia Mauro Fiore
muzyka James Horner
czas trwania: 162
dystrybucja: Imperial - Cinepix


Ludzkość odkrywa planetę o nazwie "Pandora". Nowy świat, zamieszkały przez humanoidalną rasę zwaną Na'vi, kryje wiele skarbów i surowców, które dla człowieka mają nieocenioną wartość. Ale tak jak puszka, od której planeta wzięła swoją nazwę, "Pandora" niesie ze sobą ryzyko nieszczęścia dla tych, którzy się z nią zetkną. Zbadanie nowej cywilizacji zostaje powierzone byłemu żołnierzowi marines, Jake'owi. Wysłany wbrew swojej woli weteran znajdzie się w trudnej sytuacji, gdy przyjdzie mu się zmierzyć z tajemnicami planety i będzie musiał walczyć o przetrwanie.

Format                           : MPEG-PS
File size                        : 7.49 GB (8,043,270,144 bytes)
Duration                         : 2hr 35mn 05s
Overall bit rate                 : 6 715 Kbps

Video
ID                               : 224 (0xE0)
Format                           : MPEG Video
Format version                   : Version 2
Format profile                   : [email protected]
Format settings, BVOP            : Yes
Format settings, Matrix          : Default
Bit rate mode                    : Variable
Bit rate                         : 5 297 Kbps
Nominal bit rate                 : 9 800 Kbps
Width                            : 720 pixels
Height                           : 576 pixels
Display aspect ratio             : 16:9
Frame rate                       : 25.000 fps
Standard                         : Component
Resolution                       : 8 bits
Colorimetry                      : 4:2:0
Scan type                        : Progressive
Scan order                       : Top Field First
Bits/(Pixel*Frame)               : 0.511


Audio #1
ID                               : 128 (0x80)
Format                           : AC-3
Format/Info                      : Audio Coding 3
Bit rate mode                    : Constant
Bit rate                         : 384 Kbps
Channel(s)                       : 6 channels
Channel positions                : Front: L C R, Surround: L R, LFE
Sampling rate                    : 48.0 KHz
Stream size                      : 58.5 MiB (6%)

Audio #2
ID                               : 129 (0x81)
Format                           : AC-3
Format/Info                      : Audio Coding 3
Bit rate mode                    : Constant
Bit rate                         : 384 Kbps
Channel(s)                       : 6 channels
Channel positions                : Front: L C R, Surround: L R, LFE
Sampling rate                    : 48.0 KHz
Stream size                      : 58.5 MiB (6%)

Audio #3
ID                               : 130 (0x82)
Format                           : AC-3
Format/Info                      : Audio Coding 3
Bit rate                         : 384 Kbps
Channel(s)                       : 6 channels
Channel positions                : Front: L C R, Surround: L R, LFE
Sampling rate                    : 48.0 KHz
Stream size                      : 58.5 MiB (6%)


Serwer be limitów! / 100MB Party!

!Można pobierać z 2-óch serwerów na przemian!

Aby zobaczyć ukryty tekst musisz być zalogowany, jeżeli nie masz konta zarejestruj się!




Podziel się !

Delicious'da Share  Share on Facebook  Friendfeed Share  Google Shared  StubmleUpon'da Share  Digg'de Share  Netvibes'de Share  Reddit'de Share RSS Feeds Subscribe!

Powrót
Przeglądasz witrynę jako gość.
Dlatego zachęcamy do rejestracji lub do zalogowania się.

Informacja
Użytkownicy z rangą Gość nie mogą dodawać komentarzy.