Menu

Download

Dziś nas odwiedzili:
Archiwum:
Grudzień 2016 (881)
Listopad 2016 (2433)
Październik 2016 (1961)
Wrzesień 2016 (1857)
Sierpień 2016 (2521)
Lipiec 2016 (2605)


Pokaż wszystkie tagi:
Wejścia na Vorek.pl z:
{referer}



NABÓR NA STANOWISKO


MODERATOR        UPLOADER



Legion (2010) R5 RMVB 310 MB

Legion (2010) R5 RMVB 310 MB

Legion (2010) R5 RMVB 310 MB
Legion (2010) R5 RMVB 310 MB

Wersja RMVB
Linki po 200mb
Dane naprawcze
Mój upload & Bez hasła
Świetna jakość
Szybkie wypakowywanie


Legion.R5.LINE.XviD-MENTiON RMVB

Legion (2010) R5 RMVB 310 MB


Legion (2010) R5 RMVB 310 MB

Wersja RMVB
Linki po 200mb / 200 MB Links
Dane naprawcze / Recovery Files
Mój upload & Bez hasla / My upload & No password
Swietna jakosc / Great Quality
Szybkie wypakowywanie / Fast Extraction


Format                           : RealMedia
File size                        : 310 MiB
Duration                         : 1h 35mn
Overall bit rate                 : 448 Kbps

Video
ID                               : 1
Format                           : RealVideo 4
Codec ID                         : RV40
Codec ID/Info                    : Based on AVC (H.264), Real Player 9
Duration                         : 1h 35mn
Bit rate                         : 384 Kbps
Width                            : 640 pixels
Height                           : 272 pixels
Display aspect ratio             : 2.35:1
Frame rate                       : 30.000 fps
Bits/(Pixel*Frame)               : 0.073
Stream size                      : 261 MiB (84%)

Audio
ID                               : 0
Format                           : Cooker
Codec ID                         : cook
Codec ID/Info                    : Based on G.722.1, Real Player 6
Duration                         : 1h 35mn
Bit rate                         : 64.1 Kbps
Channel(s)                       : 2 channels
Sampling rate                    : 44.1 KHz
Resolution                       : 16 bits
Stream size                      : 43.6 MiB (14%)


Po przerazajacej biblijnej apokalipsie, grupa obcych sobie ludzi odcietych od swiata w odleglym przydroznym barze na
Poludniowym Zachodzie, nieswiadomie staje sie ostatnia deska ratunku dla ludzkosci, kiedy okazuje sie, ze mloda kelnerka
jest w ciazy z mesjaszem.


Legion (2010) R5 RMVB 310 MB
Legion (2010) R5 RMVB 310 MB

Legion (2010) R5 RMVB 310 MB

Legion (2010) R5 RMVB 310 MB
Aby zobaczyć ukryty tekst musisz być zalogowany, jeżeli nie masz konta zarejestruj się!





Podziel się !

Delicious'da Share  Share on Facebook  Friendfeed Share  Google Shared  StubmleUpon'da Share  Digg'de Share  Netvibes'de Share  Reddit'de Share RSS Feeds Subscribe!

Powrót
Przeglądasz witrynę jako gość.
Dlatego zachęcamy do rejestracji lub do zalogowania się.

Informacja
Użytkownicy z rangą Gość nie mogą dodawać komentarzy.