Menu

Download

Dziś nas odwiedzili:
Archiwum:
Grudzień 2016 (382)
Listopad 2016 (2437)
Październik 2016 (1965)
Wrzesień 2016 (1859)
Sierpień 2016 (2523)
Lipiec 2016 (2609)


Pokaż wszystkie tagi:
Wejścia na Vorek.pl z:
{referer}



NABÓR NA STANOWISKO


MODERATOR        UPLOADER



Format : AVI
Format/Info : Audio Video Interleave
File size : 699 MiB
Duration : 2h 0mn
Overall bit rate : 813 Kbps
Writing application : VirtualDubMod 1.5.4.1 (build 2178/release)
Writing library : VirtualDubMod build 2178/release

Video
ID : 0
Format : MPEG-4 Visual
Format profile : Advanced [email protected]
Format settings, BVOP : Yes
Format settings, QPel : No
Format settings, GMC : No warppoints
Format settings, Matrix : Custom
Codec ID : XVID
Codec ID/Hint : XviD
Duration : 2h 0mn
Bit rate : 695 Kbps
Width : 560 pixels
Height : 240 pixels
Display aspect ratio : 2.35:1
Frame rate : 29.970 fps
Resolution : 8 bits
Colorimetry : 4:2:0
Scan type : Progressive
Bits/(Pixel*Frame) : 0.173
Stream size : 598 MiB (86%)
Writing library : XviD 1.2.1 (UTC 2008-12-04)

Audio
ID : 1
Format : MPEG Audio
Format version : Version 1
Format profile : Layer 3
Mode : Joint stereo
Format_Settings_ModeExtension : MS Stereo
Codec ID : 55
Codec ID/Hint : MP3
Duration : 2h 0mn
Bit rate mode : Variable
Bit rate : 104 Kbps
Nominal bit rate : 128 Kbps
Channel(s) : 2 channels
Sampling rate : 48.0 KHz
Stream size : 89.4 MiB (13%)
Alignment : Aligned on interleaves
Interleave, duration : 24 ms (0.72 video frame)
Interleave, preload duration : 207 ms
Writing library : LAME3.98r
Encoding settings : -m j -V 4 -q 2 -lowpass 17 --abr 128
Language : Chinese


Imdb Link:http://www.imdb.com/title/tt1397498/
Yun-Fat Chow ... Confucius
Xun Zhou ... Nan Zi
Yi Lu
Jianbin Chen
Lu Yao ... Lu Jun
Kaili Zhang


Historia życia jednego z największych filozofów świata - Konfucjusza
(w tej roli Yun-Fat Chow) oraz przemian politycznych zachodzących
w Chinach w V i VI wieku p.n.e. - podczas okresu wielkich wojen
.



Aby zobaczyć ukryty tekst musisz być zalogowany, jeżeli nie masz konta zarejestruj się!





Podziel się !

Delicious'da Share  Share on Facebook  Friendfeed Share  Google Shared  StubmleUpon'da Share  Digg'de Share  Netvibes'de Share  Reddit'de Share RSS Feeds Subscribe!

Powrót
Przeglądasz witrynę jako gość.
Dlatego zachęcamy do rejestracji lub do zalogowania się.

Informacja
Użytkownicy z rangą Gość nie mogą dodawać komentarzy.