Menu

Download

Dziś nas odwiedzili:
Archiwum:
Grudzień 2016 (392)
Listopad 2016 (2437)
Październik 2016 (1965)
Wrzesień 2016 (1859)
Sierpień 2016 (2523)
Lipiec 2016 (2609)


Pokaż wszystkie tagi:
Wejścia na Vorek.pl z:
{referer}



NABÓR NA STANOWISKO


MODERATOR        UPLOADER



Shutter Island V2 R5 XViD - IMAGiNE

Shutter Island to wyspa położona w pobliżu Bostonu, na której znajduje się szpital dla chorych psychicznie przestępców. Ucieczka z tego miejsca jest praktycznie niemożliwa. A jednak z celi bez śladu znika jedna z pacjentek, Rachel Solando. Szeryf federalny Teddy Daniels wraz ze swoim partnerem przybywa na wyspę w celu przeprowadzenia śledztwa w tej sprawie. Detektywi szybko dochodzą do wniosku, że uciekinierka próbuje przekazać im zaszyfrowaną wiadomość dotyczącą dziwnych wydarzeń w szpitalu. Do wyspy zbliża się tornado, które na pewien czas pozbawia ją kontaktu z lądem. Teddy odkrywa, że jeden z pacjentów jest podpalaczem odpowiedzialnym za śmierć jego żony. Napięcie przyprawia go o migrenę. Dyrektor szpitala John Cawley oferuje szeryfowi pomoc. Jednak od momentu zażycia tabletek rzeczywistość zaczyna wymykać się spod kontroli. Teddy zaczyna podejrzewać o nieczyste zamiary lekarzy, swego partnera, a nawet samego siebie.

Ripper ...........: IMAGiNE
IMDB Rating.......:8.1/10
Video Codec.......: XVID
Release Date......:18/03/10
Audio Codec.......:MP3
Theatre Date......:19/02/10
Audio Bitrate.....:128
Runtime.......:2h 12mn
Subtitles.........:NIL
Language..........:ENGLISH
Resolution...... 740 x 304
IMDb URL..........:http://imdb.com/title/tt1130884/

Video
Format : MPEG-4 Visual
Format profile : Streaming [email protected]
Format settings, BVOP : Yes
Format settings, QPel : No
Format settings, GMC : No warppoints
Format settings, Matrix : Default
Muxing mode : Packed bitstream
Codec ID : XVID
Codec ID/Hint : XviD
Duration : 2h 12mn
Bit rate : 1 350 Kbps
Width : 720 pixels
Height : 304 pixels
Display aspect ratio : 2.35
Frame rate : 25.000 fps
Resolution : 24 bits
Colorimetry : 4:2:0
Scan type : Progressive
Bits/(Pixel*Frame) : 0.247
Stream size : 1.25 GiB (91%)
Writing library : XviD 50

Audio
Format : MPEG Audio
Format version : Version 1
Format profile : Layer 3
Codec ID : 55
Codec ID/Hint : MP3
Duration : 2h 6mn
Bit rate mode : Constant
Bit rate : 128 Kbps
Channel(s) : 2 channels
Sampling rate : 44.1 KHz
Resolution : 16 bits
Video delay : 5s 900ms
Stream size : 116 MiB (8%)
Alignment : Split accross interleaves
Interleave, duration : 42 ms (1.04 video frame)
Interleave, preload duration : 500 ms
Writing library : LAME3.98.

Shutter Island V2 R5 XViD - IMAGiNE
Shutter Island V2 R5 XViD - IMAGiNE
Shutter Island V2 R5 XViD - IMAGiNE
Shutter Island V2 R5 XViD - IMAGiNE

Download:

Aby zobaczyć ukryty tekst musisz być zalogowany, jeżeli nie masz konta zarejestruj się!



Podziel się !

Delicious'da Share  Share on Facebook  Friendfeed Share  Google Shared  StubmleUpon'da Share  Digg'de Share  Netvibes'de Share  Reddit'de Share RSS Feeds Subscribe!

Powrót
Przeglądasz witrynę jako gość.
Dlatego zachęcamy do rejestracji lub do zalogowania się.

Informacja
Użytkownicy z rangą Gość nie mogą dodawać komentarzy.