Menu

Download

Dziś nas odwiedzili:
jedrek00711, keram, eree, misek1, sir daro 24, agary35, zibi19979, gargamel_50, brovarek123, arkadiusz271, draco, carabose, lukasz666666, genium68, dejw, agnuszka, pirek, Prospector00, thomas.1979, jeno10, narkusdwa, figo73, kurosumi, bowe1969, andy08, Ambasadoor70, edmund54, magdajawor1, igi2, mlody2205, yonk, wytaczarz44, tomaszlegion, GunHead, artfrst, pychu007, solgerx, wlodek66, levy52, karbor83, Taktyk91, matey777, Raf.36, amfetaminka, marian1999, mart1nof, kajtek42, areczek971, porwichp, Painkiller212, laewa, ciołek12, tomaszo1948, stanley_pl, biznesmen66, cichyd1, darunia27, Fedor11, miro72, eneasz, geniusloci, marek6408, glut1510, niguel, Bodzio57, darekbus, foch5r, ralf1976, jpwko, ravler89, Mazip007, jurekaw, jerry1013, rumak83, andino, ango, kudek01, wfman, lukasz10051, tadeuszo7, tomek i ania, werona1, drls1989, Optimus22, aga2.05, lucky170, misiu1185, 3366, secundus, FALKON69, papay100, topikos, jcl, priv, lauratcv, grochu777, buruburu, weronis, qczi, waclaw, mariant, baraxx, mondia, mobil199, gasior932, MARIULA500, krepel, weenzer, adam101102, buba48, Sarima, czesiek1964, gbur17, bazumi20, ARTUROSE, Andi-diesel, Krakus51, ryszardos69, mam321, Finder, BoloLVII, akak1, intermilano, adox80, lorak56, rutkowski20, czesie_k, kamelot2012, wotar, Manias01, osa31, aspekt2004, krys49, crownart, Uszka2001, skarabeusz, bylik71, MechoTV, darekgl1968, daro30, Zelwik, tedxvs, splittt, zpcytadela, buku54, drenn1, Kamirllo105, angelo1969, Sypi, ASTERGO, zibim, jupkeennss, spoli, RUFO, serrafus, robaczio9, wojtasg, sznurowski, kat666, jano666, jinks13, Lukas8, pepik11, mariusz242, lipenjusz, chemik638, jusia266, gento, machoney1920, lukaszek17, celin, xard2906, pestka210, Matthew67, Ashigari, andjey, iruss3, Cirrus, alex, EdiMar, aj 1971, Bartekn90, jojogurt, Samuel Buddy, P.P.P., mpawel71, lopez138, Abdul_wisimulacha, Aydamusek, wielgi24, Vanisz, mp3de, slawol666, lepper, rudagemba, Seba1984r, virginiaa, andwnu, WeilandT, jarek861029, Trytonik, EFBOT, jarecki500, Svilesis

Archiwum:
Grudzień 2016 (639)
Listopad 2016 (2434)
Październik 2016 (1961)
Wrzesień 2016 (1857)
Sierpień 2016 (2521)
Lipiec 2016 (2605)


Pokaż wszystkie tagi:
Wejścia na Vorek.pl z:
{referer}



NABÓR NA STANOWISKO


MODERATOR        UPLOADER



Green Zone TS XViD - IMAGiNE

Matt Damon i reżyser Paul Greengrass ponownie połączyli siły w thrillerze "Green Zone", którego akcja rozgrywa się podczas pierwszych chaotycznych dni wojny w Iraku, kiedy to nikomu nie można było ufać, a każda decyzja mogła skończyć się nieprzewidywalnymi konsekwencjami. Podczas prowadzonej przez Stany Zjednoczone okupacji Bagdadu w 2003 roku, starszy chorąży Roy Miller i zespół inspektorów wojskowych zostają wysłani w celu odnalezienia broni masowej zagłady, która jak wierzono miała być składowana na irackiej pustyni. Przemieszczając się z jednego zabezpieczonego minami miejsca – pułapki na drugie, żołnierze w trakcie poszukiwania śmiertelnych odczynników chemicznych natykają się na zawiłe próby zatajenia prawdy, które zmieniają cel ich misji. Działając wśród agentów wywiadu kierujących się sprzecznymi motywami, Miller szuka odpowiedzi, które albo zniosą reżim, albo doprowadzą do eskalacji działań wojennych w tym zapalnym rejonie. Znajduje najbardziej zawodną broń - prawdę.

Ripper ...........: IMAGiNE
IMDB Rating.......:7.4/10
Video Codec.......: XViD
Release Date......:18/03/10
Audio Codec.......:MP3
Theatre Date......:12/03/10
Audio Bitrate.....:128
Runtime.......:1h 45mn
Subtitles.........:ENG WHEN NEEDED
Language..........:ENGLISH
Resolution...... 704 x 288
IMDb URL..........:http://www.imdb.com/title/tt0947810/


Video
ID : 0
Format : MPEG-4 Visual
Format profile : Advanced [email protected]
Format settings, BVOP : Yes
Format settings, QPel : No
Format settings, GMC : No warppoints
Format settings, Matrix : Default (MPEG)
Muxing mode : Packed bitstream
Codec ID : XVID
Codec ID/Hint : XviD
Duration : 1h 45mn
Bit rate : 1 707 Kbps
Width : 704 pixels
Height : 288 pixels
Display aspect ratio : 2.444
Frame rate : 23.976 fps
Resolution : 24 bits
Colorimetry : 4:2:0
Scan type : Progressive
Bits/(Pixel*Frame) : 0.351
Stream size : 1.26 GiB (93%)
Writing library : XviD 1.2.1 (UTC 2008-12-04)

Audio
ID : 1
Format : MPEG Audio
Format version : Version 1
Format profile : Layer 3
Codec ID : 55
Codec ID/Hint : MP3
Duration : 1h 45mn
Bit rate mode : Constant
Bit rate : 128 Kbps
Channel(s) : 2 channels
Sampling rate : 48.0 KHz
Resolution : 16 bits
Stream size : 96.5 MiB (7%)
Alignment : Split accross interleaves
Interleave, duration : 42 ms (1.00 video frame)
Interleave, preload duration : 500 ms

Green Zone TS XViD - IMAGiNE
Green Zone TS XViD - IMAGiNE
Green Zone TS XViD - IMAGiNE
Green Zone TS XViD - IMAGiNE
Green Zone TS XViD - IMAGiNE
Green Zone TS XViD - IMAGiNE

Download:

Aby zobaczyć ukryty tekst musisz być zalogowany, jeżeli nie masz konta zarejestruj się!



Podziel się !

Delicious'da Share  Share on Facebook  Friendfeed Share  Google Shared  StubmleUpon'da Share  Digg'de Share  Netvibes'de Share  Reddit'de Share RSS Feeds Subscribe!

Powrót
Przeglądasz witrynę jako gość.
Dlatego zachęcamy do rejestracji lub do zalogowania się.

Informacja
Użytkownicy z rangą Gość nie mogą dodawać komentarzy.