Menu

Download

Dziś nas odwiedzili:
ulaghost, priv, Fedor11, buruburu, mwita3, Krzysztof1973, Trytonik, pentor, zakopne, kikir3, tomaszo1948, Siegfried, sproket1, toxicnoiz, mzielony, Pitek2087, klymvm, jurszer, Wafelcmok, hiphop28, piurored123, Krakus51, yonk, jeak, skyluk, wafel_ll, CCC59KXJ, andy08, slapot78, janusz56, sandacz53, dusia2002, edmund54, huano877, ketez, lorak56, lonej1, amfa07, JoXs, nowmarek, incubus, bodek63, dejw, terry258, matrix^81, darekbus, agata38, igi2, ahagner, Thalia1, rodzynek1983, biggreg, ravler89, amfetaminka, ralf1976, narkusdwa, kudek01, dudikn, lepper, michas86, foch5r, przemas2232, Manias01, gerard, Uszka2001, virginiaa, bil, krzysiek850307, abaabaaba, jaco013, Estek1, mondia, geniusloci, krepel, solgerx, kanapkatorpedo, ciołek12, Sdrov, elasuc, picer123, Lukas8, danix20, janek12, ellah, areczek971, womi10, adox80, kacper2008, arkadiusz271, kat666, barteklublin111, demon190219, piotr1666, szybki811, Sarima, GunHead, bialy744q, spot2302, tlisiak80, Finder, mach12, kasi, aro383, Lorenz, MISIU11, riko121, intermilano, vermigor, zibi19979, pitereku, bronek65, pika01, akak1, pirek, wotar, adasek.u, weenzer, pychu007, latos2005, kalafior44, ziuta, eree, jusia266, jano666, kkk244240, ijorgu, 3366, wlodek55, baraxx, Dualhead, marcin_marcin, figo73, gawron.1983, ddrr, miro, robek4, wytaczarz44, dorkasevi, spoli, zajac26, angelo1969, slay25, lordsiur, xard2906, tom7517, fazzy99, eneasz, topolski, jinks13, tedxvs, karat, andrzejpfx, balanga11, mp3de, niguel, krzycho1985, buku54, pipipiotr, marecki43, mogo76, splittt, EdiMar, anetam1, AtlasGTX, pepik11, Bartekn90, alex, mks, lukaszek17, P.P.P., jedrek00711, aj 1971, jpwko, snayper, bylik71, Erik, jarek861029, iwonaro, andjey, xxMarek, mardra1, Ashigari, circus, iruss3, Cirrus, jarecki500, aspekt2004, Kamirllo105, Zelwik, mariusz242, Andi-diesel, Vanisz, brovarek123, jarro40, misiu1185, trivium, Estebes777, emilianox, spam9580, luzik5, skajla, sbb1953, tristan_mk, rutkowski20, EFBOT, Bóli123, Svilesis

Archiwum:
Grudzień 2016 (1009)
Listopad 2016 (2431)
Październik 2016 (1961)
Wrzesień 2016 (1857)
Sierpień 2016 (2521)
Lipiec 2016 (2605)


Pokaż wszystkie tagi:
Wejścia na Vorek.pl z:
{referer}



NABÓR NA STANOWISKO


MODERATOR        UPLOADER



Opętani / The Crazies TS XViD V2 - IMAGiNE

Amerykański rząd wytwarza w tajnych laboratoriach zabójczy wirus. Kiedy traci nad nim kontrolę, wojsko desperacko próbuje powstrzymać szybko rozprzestrzeniające się śmiercionośne szaleństwo.

Ripper ...........: IMAGiNE
IMDB Rating.......:7.4/10
Video Codec.......: XVID
Release Date......:08/03/10
Audio Codec.......:MP3
Theatre Date......:26/02/10
Audio Bitrate.....:192
Runtime.......:1h 33mn
Subtitles.........:NIL
Language..........:ENGLISH
Resolution...... 720 x 288
IMDb URL..........:http://www.imdb.com/title/tt0455407/

Video
ID : 0
Format : MPEG-4 Visual
Format profile : Advanced [email protected]
Format settings, BVOP : Yes
Format settings, QPel : No
Format settings, GMC : No warppoints
Format settings, Matrix : Default (MPEG)
Muxing mode : Packed bitstream
Codec ID : XVID
Codec ID/Hint : XviD
Duration : 1h 33mn
Bit rate : 2 804 Kbps
Width : 720 pixels
Height : 288 pixels
Display aspect ratio : 2.500
Frame rate : 23.976 fps
Resolution : 24 bits
Colorimetry : 4:2:0
Scan type : Progressive
Bits/(Pixel*Frame) : 0.564
Stream size : 1.83 GiB (93%)
Writing library : XviD 1.2.1 (UTC 2008-12-04)

Audio
ID : 1
Format : MPEG Audio
Format version : Version 1
Format profile : Layer 3
Codec ID : 55
Codec ID/Hint : MP3
Duration : 1h 33mn
Bit rate mode : Constant
Bit rate : 192 Kbps
Channel(s) : 2 channels
Sampling rate : 48.0 KHz
Resolution : 16 bits
Stream size : 128 MiB (6%)
Alignment : Aligned on interleaves
Interleave, duration : 42 ms (1.00 video frame)
Interleave, preload duration : 504 ms

Opętani / The Crazies TS XViD V2 - IMAGiNE
Opętani / The Crazies TS XViD V2 - IMAGiNE
Opętani / The Crazies TS XViD V2 - IMAGiNE
Opętani / The Crazies TS XViD V2 - IMAGiNE

Download:

Aby zobaczyć ukryty tekst musisz być zalogowany, jeżeli nie masz konta zarejestruj się!



Podziel się !

Delicious'da Share  Share on Facebook  Friendfeed Share  Google Shared  StubmleUpon'da Share  Digg'de Share  Netvibes'de Share  Reddit'de Share RSS Feeds Subscribe!

Powrót
Przeglądasz witrynę jako gość.
Dlatego zachęcamy do rejestracji lub do zalogowania się.

Informacja
Użytkownicy z rangą Gość nie mogą dodawać komentarzy.