Menu

Download

Dziś nas odwiedzili:
Archiwum:
Grudzień 2016 (259)
Listopad 2016 (2437)
Październik 2016 (1966)
Wrzesień 2016 (1859)
Sierpień 2016 (2523)
Lipiec 2016 (2609)


Pokaż wszystkie tagi:
Wejścia na Vorek.pl z:
{referer}



NABÓR NA STANOWISKO


MODERATOR        UPLOADER



Dear John 2010-Cam Lu

Opowiedziana z wielkim rozmachem historia o miłości, rozstaniu i zdradzie, na podstawie najpoczytniejszej powieści Nicholasa Sparksa. Film w reżyserii Lasse Hallström, wielokrotnie nominowanego do Oscara twórcy "Czekolady", "Co Gryzie Gilberta Grape'a" i "Kronik Portowych", który stoi za kamerą już od najmłodszych lat i każdy jego kolejny projekt jest wielkim sukcesem kinowym i komercyjnym.

TiTLE......[ Dear John
YEAR.......[ 2010
GENRE......[ Drama | Romance | War
RUNTiME....[ 1:41:24
iMDB RATE..[ User Rating: 5.3/10 2,708 votes
iMDB URL...[ http://www.imdb.com/title/tt0989757/

Format: AVI
Format/Info: Audio Video Interleave
File size: 608 MiB
Duration: 1h 41mn
Overall bit rate: 839 Kbps
Writing library: VirtualDub build 32706/release

Video
ID: 0
Format: MPEG-4 Visual
Format settings, BVOP: Yes
Format settings, QPel: No
Format settings, GMC: No warppoints
Format settings, Matrix: Default (H.263)
Muxing mode: Packed bitstream
Codec ID: DX50
Codec ID/Hint: DivX 5
Duration: 1h 41mn
Bit rate: 701 Kbps
Width: 704 pixels
Height: 280 pixels
Display aspect ratio: 2.514
Frame rate: 23.976 fps
Resolution: 8 bits
Colorimetry: 4:2:0
Scan type: Progressive
Bits/(Pixel*Frame): 0.148
Stream size: 508 MiB (84%)
Writing library: DivX 6.8.5 (UTC 2009-08-20)

Audio
ID: 1
Format: MPEG Audio
Format version: Version 1
Format profile: Layer 3
Codec ID: 55
Codec ID/Hint: MP3
Duration: 1h 41mn
Bit rate mode: Constant
Bit rate: 128 Kbps
Channel(s): 2 channels
Sampling rate: 44.1 KHz
Stream size: 92.8 MiB (15%)
Alignment: Split accross interleaves
Interleave, duration: 42 ms (1.00 video frame)
Interleave, preload duration: 500 ms
Writing library: LAME3.98.2

Cast:
Channing Tatum ... John Tyree
Amanda Seyfried ... Savannah Curtis
Richard Jenkins ... Mr. Tyree
Henry Thomas ... Tim Wheddon
D.J. Cotrona ... Noodles
Cullen Moss ... Rooster (Dan Rooney)
Gavin McCulley ... Starks
Jose Lucena Jr. ... Berry
Keith Robinson ... Captain Stone
Scott Porter ... Randy
Leslea Fisher ... Susan
William Howard Bowman ... Daniels (as William Howard)
David Andrews ... Mr. Curtis
Mary Rachel Dudley ... Mrs. Curtis
Bryce Hayes ... Yellow Shirt

Dear John 2010-Cam Lu

Download:

Aby zobaczyć ukryty tekst musisz być zalogowany, jeżeli nie masz konta zarejestruj się!



Podziel się !

Delicious'da Share  Share on Facebook  Friendfeed Share  Google Shared  StubmleUpon'da Share  Digg'de Share  Netvibes'de Share  Reddit'de Share RSS Feeds Subscribe!

Powrót
Przeglądasz witrynę jako gość.
Dlatego zachęcamy do rejestracji lub do zalogowania się.

Informacja
Użytkownicy z rangą Gość nie mogą dodawać komentarzy.