Menu

Download

Dziś nas odwiedzili:
Archiwum:
Grudzień 2016 (613)
Listopad 2016 (2434)
Październik 2016 (1961)
Wrzesień 2016 (1857)
Sierpień 2016 (2521)
Lipiec 2016 (2605)


Pokaż wszystkie tagi:
Wejścia na Vorek.pl z:
{referer}



NABÓR NA STANOWISKO


MODERATOR        UPLOADER



From Paris With Love R5 LiNE XVID - IMAGiNE

Młodemu pracownikowi amerykańskiej ambasady w Paryżu, Richardowi Stevensowi (Jonathan Rhys-Meyers), na czas niebezpiecznej misji, zostaje przydzielony partner Charlie Wax (John Travolta), który jest amerykańskim agentem tajnych służb. Jednak nie jest on wymarzonym partnerem Richarda, bo nie tylko traktuje go jak szofera, ale również stosuje całkowicie różne metody.

Ripper ...........: IMAGiNE
IMDB Rating.......:6.5/10
Video Codec.......:XVID
Release Date......:26/02/09
Audio Codec.......:MP3
Theatre Date......:05/02/09
Audio Bitrate.....:128
Runtime.......:1h 42mn
Subtitles.........:NIL
Language..........:ENGLISH
Resolution........:720 x 304
IMDb URL..........:http://www.imdb.com/title/tt1179034/

Video
ID : 0
Format : MPEG-4 Visual
Format profile : Advanced [email protected]
Format settings, BVOP : Yes
Format settings, QPel : No
Format settings, GMC : No warppoints
Format settings, Matrix : Default (MPEG)
Muxing mode : Packed bitstream
Codec ID : XVID
Codec ID/Hint : XviD
Duration : 1h 28mn
Bit rate : 2 048 Kbps
Width : 720 pixels
Height : 304 pixels
Display aspect ratio : 2.35:1
Frame rate : 25.000 fps
Resolution : 8 bits
Colorimetry : 4:2:0
Scan type : Progressive
Bits/(Pixel*Frame) : 0.374
Stream size : 1.27 GiB (94%)
Writing library : XviD 1.2.1 (UTC 2008-12-04)

Audio
ID : 1
Format : MPEG Audio
Format version : Version 1
Format profile : Layer 3
Mode : Joint stereo
Format_Settings_ModeExtension : MS Stereo
Codec ID : 55
Codec ID/Hint : MP3
Duration : 1h 28mn
Bit rate mode : Constant
Bit rate : 128 Kbps
Channel(s) : 2 channels
Sampling rate : 44.1 KHz
Stream size : 81.1 MiB (6%)
Alignment : Split accross interleaves
Interleave, duration : 40 ms (1.00 video frame)
Interleave, preload duration : 500 ms



Download:

Aby zobaczyć ukryty tekst musisz być zalogowany, jeżeli nie masz konta zarejestruj się!



Podziel się !

Delicious'da Share  Share on Facebook  Friendfeed Share  Google Shared  StubmleUpon'da Share  Digg'de Share  Netvibes'de Share  Reddit'de Share RSS Feeds Subscribe!

Powrót
Przeglądasz witrynę jako gość.
Dlatego zachęcamy do rejestracji lub do zalogowania się.

Informacja
Użytkownicy z rangą Gość nie mogą dodawać komentarzy.