Menu

Download

Dziś nas odwiedzili:
Archiwum:
Grudzień 2016 (233)
Listopad 2016 (2437)
Październik 2016 (1966)
Wrzesień 2016 (1859)
Sierpień 2016 (2523)
Lipiec 2016 (2609)


Pokaż wszystkie tagi:
Wejścia na Vorek.pl z:
{referer}



NABÓR NA STANOWISKO


MODERATOR        UPLOADER



Valentines Day TS XVID - IMAGiNE

Wydarzenia opowiedziane w filmie ukazane są z perspektywy wielu postaci, znajdujących się w różnych momentach życia i na różne sposoby zaangażowanych w bycie z drugą osobą — jedni są na etapie pierwszych randek, a inni w długich związkach. Jedni dopiero ulegają zauroczeniu, a innych łączą uczucia niewygasające od lat. Niektórzy są zdeklarowanymi singlami, a pozostali cierpią z powodu nieodwzajemnionej miłości...

Ripper ...........: IMAGiNE
IMDB Rating.......:5.6/10
Video Codec.......: XVID
Release Date......:23/02/10
Audio Codec.......:MP3
Theatre Date......:12/02/1
Audio Bitrate.....:48
Runtime.......:1h 51mn
Subtitles.........:NIL
Language..........:ENGLISH
Resolution...... 624 x 288
IMDb URL..........:http://www.imdb.com/title/tt0817230/

Video
ID : 0
Format : MPEG-4 Visual
Format profile : Advanced [email protected]
Format settings, BVOP : Yes
Format settings, QPel : No
Format settings, GMC : No warppoints
Format settings, Matrix : Default (MPEG)
Muxing mode : Packed bitstream
Codec ID : XVID
Codec ID/Hint : XviD
Duration : 1h 51mn
Bit rate : 1 631 Kbps
Width : 624 pixels
Height : 288 pixels
Display aspect ratio : 2.2:1
Frame rate : 25.000 fps
Resolution : 8 bits
Colorimetry : 4:2:0
Scan type : Progressive
Bits/(Pixel*Frame) : 0.363
Stream size : 1.27 GiB (97%)
Writing library : XviD 1.2.1 (UTC 2008-12-04)

Audio
ID : 1
Format : MPEG Audio
Format version : Version 2
Format profile : Layer 3
Mode : Joint stereo
Format_Settings_ModeExtension : Intensity Stereo + MS Stereo
Codec ID : 55
Codec ID/Hint : MP3
Duration : 1h 51mn
Bit rate mode : Constant
Bit rate : 48.0 Kbps
Channel(s) : 2 channels
Sampling rate : 24.0 KHz
Stream size : 38.3 MiB (3%)
Alignment : Split accross interleaves
Interleave, duration : 40 ms (1.00 video frame)
Interleave, preload duration : 500 ms

Valentines Day TS XVID - IMAGiNE
Valentines Day TS XVID - IMAGiNE
Valentines Day TS XVID - IMAGiNE
Valentines Day TS XVID - IMAGiNE

Download:

Aby zobaczyć ukryty tekst musisz być zalogowany, jeżeli nie masz konta zarejestruj się!



Podziel się !

Delicious'da Share  Share on Facebook  Friendfeed Share  Google Shared  StubmleUpon'da Share  Digg'de Share  Netvibes'de Share  Reddit'de Share RSS Feeds Subscribe!

Powrót
Przeglądasz witrynę jako gość.
Dlatego zachęcamy do rejestracji lub do zalogowania się.

Informacja
Użytkownicy z rangą Gość nie mogą dodawać komentarzy.