Menu

Download

Polub nas!
Online
W ostatnich 24 godzinach odwiedziło nas 9550 użytkowników w tym 4061 zalogowanych oraz 5489 gości. Obecnie serwis przegląda 395 użytkowników, w tym 259 zalogowanych.
1957Piotr, 1pz, 412pawel412, 700hary, 7740, a4b4, aaapsik150, aadam227, acpman, agugu, agula65, agusienkaa, aj 1971, Akacja2000, albercik82, alek-x, AlicjaAlaAlusia, alina_89, Alkovita7, AlleyCat69, Amarativ, Andre13, andrzej-44, Andrzej.kl, andrzejpfx, andrzejzr, andy003, AngelMir, Antyvirus13, Asmodeusz1492, attak, atw0, azbeny, Bartekn90, bateryjka, bdortmund, bee, Bigoss, bizar, bogdan85, bububu07bu, bulgoc, buncol600, byta1982, carabose, cardio, CezaryW, cezbos, christina2013, cienik, cienkibolek, cinuzuzia, ciompis, colossus1, conbass1, cr68, cukierek-85, czaja, dalib, damagic, daniu_88, dariusz.n, daroem, dedalus86, dragon2012, dreju, drikpitt, dsefd, dziadek G, dzikus206, EFBOT, ejunior, elektrikos, enzoropniak, Erik, eronin, fhu_rafi, Flotsam, franz721, frodo, garadhei, geniusloci, gniazdonadachu, gochazach, godzio, gregor97, grzesd3, gusia-bo, haczyk123, halabala, hanysz, Hell56, hermar7, iMentos, isegoria, IwanKW, JacekSink1, jacoco, jankabot, jannowa, jarek1904, Jasiek82, Jazz_1963, jedrek00711, jszlom, jury67, ka21trin, kacper8263, kaktus-studio, kami80, karsa1975, kasztelan67, kaziczek1991, kazik19, kdlis, keinib, kika2413, kimo1, kion1, kitkat5961, kojottt, kololuk, krltwr, krzykik, leszkin, likherty, llapka65, longijoe, lul001, magik020, Majki, Małgorzata Władyka, Mania22, Mania87, marat8, marcin.strzesniewski, marcin790, marcin_marcin, mardra1, marian0007, mario.g, markopoland, marsjanin76, martel, martine85, matiut, mercurium, miasto2008, MieciaC, miki84, Miks2001, misi30cw, mitsui, monikaffm, mordrag87, mpawel71, mr36, mti007, muldas, nadmag, nakuru17, Neo2017, net244, Niesmaczny, nowak379, Ominek, ossy, PanWojti28, pan_lukasz, pawelhome1, pawelwas, pchelka, pchelkass, pepik11, piotur, pipipiotr, Piwowarek, polo007, powerdsl, Premium_Kosa, proffoto, przemograf, PSINA138, psychobart, puma22, pw83, PYRUS, QBASSOS, qsefthuko, qspy, Quppa, ra88, rafacus, Ramones1971, rej212, robal23, Robertnss, robinchu, robo1967, roko25, roksa, rudagemba, ruptak, rutkowski20, rzalewski, s1_supervisor, sandacz53,  SARCIA, sarzu, schnikers, sciagaczk, sebastianpieta, sebastianzet, serbullba, slat, sloti, smooky, Ssteffann, stefan43, sterios, Svilesis, sylwester55, szczekus, szczepan582, szosti, szrapnel, szybki500, thalotor, tomcio69, TomikDC, tomsonxxl, toni11, Torres, trebugas, twist79, tyczkens1, Valgard, Velii65, virophage, w549, walduhiro, wawa998, werbena1987, whisky65, widur1993, wojtekx 321, xasiax1986, xflash, xxl9, yankos1, Yareck80, zable, Zabuza, zbyszek1408, Zelwik, zokopian, zxc74, zyga11, zyga2010
Najgoretsze wstawki


Autor: SexyGirl
Data: 21 Luty 2010
Kategoria: FILMY » Zagraniczne
0


Tooth Fairy 2010 R5 LiNE XViD - IMAGiNE

Komedia familijna o trenerze hokeja, który zmuszony zostaje przyjąć rolę "wróża zębowego" - dobrej wróżki, która daje dzieciom prezenty w zamian za wypadające mleczne zęby.

Ripper ...........: IMAGiNE
IMDB Rating.......:4.0/10
Video Codec.......: XVID
Release Date......:21/02/10
Audio Codec.......:MP3
Theatre Date......:22/01/10
Audio Bitrate.....:128
Runtime.......:1h 37mn
Subtitles.........:NIL
Language..........:ENGLISH
Resolution...... 720 x 384
IMDb URL..........:http://www.imdb.com/title/tt0808510/

ID : 0
Format : MPEG-4 Visual
Format profile : Advanced [email protected]
Format settings, BVOP : Yes
Format settings, QPel : No
Format settings, GMC : No warppoints
Format settings, Matrix : Default (MPEG)
Muxing mode : Packed bitstream
Codec ID : XVID
Codec ID/Hint : XviD
Duration : 1h 37mn
Bit rate : 1 885 Kbps
Width : 720 pixels
Height : 384 pixels
Display aspect ratio : 1.875
Frame rate : 25.000 fps
Resolution : 8 bits
Colorimetry : 4:2:0
Scan type : Progressive
Bits/(Pixel*Frame) : 0.273
Stream size : 1.28 GiB (93%)
Writing library : XviD 1.2.1 (UTC 2008-12-04)

Audio
ID : 1
Format : MPEG Audio
Format version : Version 1
Format profile : Layer 3
Mode : Joint stereo
Format_Settings_ModeExtension : MS Stereo
Codec ID : 55
Codec ID/Hint : MP3
Duration : 1h 37mn
Bit rate mode : Constant
Bit rate : 128 Kbps
Channel(s) : 2 channels
Sampling rate : 48.0 KHz
Stream size : 89.1 MiB (6%)
Alignment : Split accross interleaves
Interleave, duration : 40 ms (1.00 video frame)
Interleave, preload duration : 500 ms



Download:

Aby zobaczyć ukryty tekst musisz być zalogowany, jeżeli nie masz konta zarejestruj się!



Podziel się !

Delicious'da Share  Share on Facebook  Friendfeed Share  Google Shared  StubmleUpon'da Share  Digg'de Share  Netvibes'de Share  Reddit'de Share RSS Feeds Subscribe!

Przeglądasz witrynę jako gość.
Dlatego zachęcamy do rejestracji lub do zalogowania się.

Informacja
Użytkownicy z rangą Gość nie mogą dodawać komentarzy.