Menu

Download

Dziś nas odwiedzili:
Archiwum:
Grudzień 2016 (847)
Listopad 2016 (2433)
Październik 2016 (1961)
Wrzesień 2016 (1857)
Sierpień 2016 (2521)
Lipiec 2016 (2605)


Pokaż wszystkie tagi:
Wejścia na Vorek.pl z:
{referer}



NABÓR NA STANOWISKO


MODERATOR        UPLOADER



Legion R5 LiNE XViD V2 - IMAGiNE

Po przerażającej biblijnej apokalipsie, grupa obcych sobie ludzi odciętych od świata w odległym przydrożnym barze na Południowym Zachodzie, nieświadomie staje się ostatnią deską ratunku dla ludzkości, kiedy okazuje się, że młoda kelnerka jest w ciąży z mesjaszem.

Ripper ...........: IMAGiNE
IMDB Rating.......:5.9/10
Video Codec.......: XVID
Release Date......:19/02/10
Audio Codec.......:MP3
Theatre Date......:22/01/10
Audio Bitrate.....:192
Runtime.......:1h 35mn
Subtitles.........:NIL
Language..........:ENGLISH
Resolution...... 704 x 288
IMDb URL..........:http://www.imdb.com/title/tt1038686/

Video
ID : 0
Format : MPEG-4 Visual
Format profile : Advanced [email protected]
Format settings, BVOP : Yes
Format settings, QPel : No
Format settings, GMC : No warppoints
Format settings, Matrix : Default (H.263)
Muxing mode : Packed bitstream
Codec ID : XVID
Codec ID/Hint : XviD
Duration : 1h 35mn
Bit rate : 2 043 Kbps
Width : 704 pixels
Height : 288 pixels
Display aspect ratio : 2.40:1
Frame rate : 25.000 fps
Resolution : 8 bits
Colorimetry : 4:2:0
Scan type : Progressive
Bits/(Pixel*Frame) : 0.403
Stream size : 1.37 GiB (91%)
Writing library : XviD 1.2.1 (UTC 2008-12-04)

Audio
ID : 1
Format : MPEG Audio
Format version : Version 1
Format profile : Layer 3
Codec ID : 55
Codec ID/Hint : MP3
Duration : 1h 35mn
Bit rate mode : Constant
Bit rate : 192 Kbps
Channel(s) : 2 channels
Sampling rate : 48.0 KHz
Stream size : 132 MiB (9%)
Alignment : Aligned on interleaves
Interleave, duration : 40 ms (1.00 video frame)
Interleave, preload duration : 504 ms



Download:

Aby zobaczyć ukryty tekst musisz być zalogowany, jeżeli nie masz konta zarejestruj się!



Podziel się !

Delicious'da Share  Share on Facebook  Friendfeed Share  Google Shared  StubmleUpon'da Share  Digg'de Share  Netvibes'de Share  Reddit'de Share RSS Feeds Subscribe!

Powrót
Przeglądasz witrynę jako gość.
Dlatego zachęcamy do rejestracji lub do zalogowania się.

Informacja
Użytkownicy z rangą Gość nie mogą dodawać komentarzy.