Menu

Download

Dziś nas odwiedzili:
Archiwum:
Grudzień 2016 (888)
Listopad 2016 (2433)
Październik 2016 (1961)
Wrzesień 2016 (1857)
Sierpień 2016 (2521)
Lipiec 2016 (2605)


Pokaż wszystkie tagi:
Wejścia na Vorek.pl z:
{referer}



NABÓR NA STANOWISKO


MODERATOR        UPLOADER



Saga "Zmierzch": Przed świtem. Część 2 / The Twilight Saga Breaking Dawn Part 2 (2012) TS Xvid-TODE / ENG
gatunek: Horror, Romans
produkcja: USA
premiera: 16 listopada 2012 (Polska) 14 listopada 2012 (świat)
reżyseria: Bill Condon
scenariusz: Melissa Rosenberg


Edward i Bella postanawiają bronić swojej córki Renesmee przed rodziną Volturi i oskarżeniami, iż pół-wampir pół-człowiek może być śmiertelnie niebezpieczny dla obu ras.


Format : AVI
File size : 686 MiB
Duration : 1h 44mn
Overall bit rate : 920 Kbps
Writing application : Lavf54.32.100

Video
Format : MPEG-4 Visual
Codec ID : XVID
Duration : 1h 44mn Bit rate : 781 Kbps
Width : 640 pixels Height : 288 pixels
Frame rate : 23.976 fps Stream size : 583 MiB (85%)

Audio
Format : AC-3
Duration : 1h 44mn
Bit rate : 128 Kbps
Channel(s) : 2 channels Sampling rate : 48.0 KHz
Bit depth : 16 bits Stream size : 95.5 MiB (14%)


Saga "Zmierzch": Przed świtem. Część 2 / The Twilight Saga Breaking Dawn Part 2 (2012) TS Xvid-TODE / ENG

Aby zobaczyć ukryty tekst musisz być zalogowany, jeżeli nie masz konta zarejestruj się!



Podziel się !

Delicious'da Share  Share on Facebook  Friendfeed Share  Google Shared  StubmleUpon'da Share  Digg'de Share  Netvibes'de Share  Reddit'de Share RSS Feeds Subscribe!

Powrót
Przeglądasz witrynę jako gość.
Dlatego zachęcamy do rejestracji lub do zalogowania się.

Informacja
Użytkownicy z rangą Gość nie mogą dodawać komentarzy.