Menu

Download

Dziś nas odwiedzili:
zadlo80, blackbird140, trixi i mila, dumdum23, martin7011, laewa, dakrot, skorpion653202, robertcacek, kuras, jacaalvaro, rufinone, andy08, ango, rumak83, kanapkatorpedo, Matthew67, amus2, bowe1969, Ireland29, dariusz77, leszeczek, Proton_1x, romanirena, tomek i ania, ravler89, amfa07, anetam1, marcindziki1, eneasz, bastion4, sproket1, sieq0, michal3670, stanisław, Krakus51, skrzyneczka112, karbor83, trybsiu, cyrzan4, robanek01, Liar, piterd14, wfman, janek12, kamyk70, maruda3773, snayper, solgerx, kikir3, miecio28, landryn, kazosokrates, keczo, bardini, pika01, joyeczek, djlemur, inesimariusz, n-gregory, wojtas1000, kako181, mart73, terry258, wojslo5, pit.7777, mrozek8, Painkiller212, yaro97, soja, cichyd1, CCC59KXJ, enigma1952, sandoran1962, HYDRODAREK, hopasiup, MIREK11111, lukasz10051, posejdon, krzysztofko, crashed323, DeejayMalec, wasyl75, pbpbpbpbpb, margaretka62, biznesmen66, pysiu_m, cybulx, geniusloci, wytaczarz44, bodek63, krepel, darekbus, lonej1, Krzysztof1973, kwankrzy1, kanzas, adamusasior122, Grav1ty, piterolo74, womi10, pentor, ulaghost, kriss86pl, jozielona, pawnan, vasiwasyl, figo73, slabin, coruble, tomaszo1948, darodaro, jeno10, dariuszlbn, smina, trez, Fedor11, lukaszek17, Andi-diesel, topikos, klymvm, Sdrov, robek4, piurored123, bodekk2, akak1, bylik71, dejw, tobi180, Grzegorz72, albert6020, kwasek, szybki811, bil, tadeuszo7, Estek1, stanley_pl, xxvxx5, zibi19979, crownart, Dawid88Diablo, Trytonik, wotar, skajla, cukierek-85, pirek, iwonaro, edmund54, mogo76, karton1, mani4444, MARTEX01, jupkeennss, Feniks101, ralf1976, adasek.u, Uszka2001, lysy1710, igi2, mariant, bolo335, zajac26, adox80, zakopne, zpcytadela, JoXs, buruburu, zbeer, pepik11, mondia, robaczio9, Manias01, gruby1001, topolski, weenzer, eree, Ewelina05, kudek01, tomaszlegion, Tomciu78, Veni, victory04, jeak, marekdudi, tomex2u, marek.k30, kasiaj4, splittt, barteklublin111, dudikn, malczyce, muldas, misiu1185, mp3de, MarczelM, ARTUROSE, yonk, lorak56, mardra1, sharkus, lepper, jedrek00711, and20, arkadiusz271, ciechom, foch5r, kasi, robin163, brovarek123, GunHead, slay25, lordsiur, pychu007, elasuc, baraxx, dorkasevi, Bartekn90, ziuta, symoni2008, 3366, spoli, aspekt2004, michas86, bydgoszcz22, pipipiotr, karol2005, kurosumi, przemograf, szery17, riko121, celin, jano666, tedxvs, jerry1013, krewetka105, xard2906, sir daro 24, andrzej15181, biggreg, jinks13, mks, gawron.1983, angelo1969, syaro, iruss3, wenancjusz21, porwichp, Ashigari, Cirrus, lucky170, mariusz242, skarabeusz, andjey, jpwko, Zelwik, alex, EdiMar, jarecki500, romuskat, aj 1971, bazumi20, Kamirllo105, adikos34, buku54, Auto-Lux, waldek77, tristan_mk, virginiaa, ramon, jarro40, Bab66, Bóli123, -julius-, emilianox, Karlos2150, szturmen, gargamel_50, tom7517, puedros57, Finder, matexe, gbur17, Svilesis, momo1410, Vanisz, 17051970, zbok69, LeoMarkus, secundus, EFBOT

Archiwum:
Grudzień 2016 (940)
Listopad 2016 (2431)
Październik 2016 (1961)
Wrzesień 2016 (1857)
Sierpień 2016 (2521)
Lipiec 2016 (2605)


Pokaż wszystkie tagi:
Wejścia na Vorek.pl z:
{referer}



NABÓR NA STANOWISKO


MODERATOR        UPLOADER



Warrior (2011) DVDSCR.MKV-INF1N1TY[/B]


INFORMACJE O FILMIE

Tytuł............................................: Warrior
Ocena.............................................: IMDB - 8.3/10 (8585), Filmweb - 8.5/10 (49)
Produkcja.........................................: USA
Gatunek...........................................: Dramat, Akcja, Sportowy
Czas trwania......................................: 127 min.
Premiera..........................................: 02.12.2011 - Polska, 09.09.2011 - Świat
Reżyseria........................................: Gavin O'Connor
Scenariusz........................................: Gavin O'Connor, Anthony Tambakis
Aktorzy...........................................: Joel Edgerton, Tom Hardy, Nick Nolte, Jennifer Morrison

OPIS: Nawiedzany tragiczną przeszłością były żołnierz marine, Tony Conlin, powraca do rodzinnego Pittsburgha. Zabiegając o wsparcie ojca Paddy'ego, byłego alkoholika i trenera, postanawia wziąć udział w turnieju mieszanych sztuk walki.


Info:


Audio: DVD [eng]
Video
ID : 1
Format : AVC
Format/Info : Advanced Video Codec
Format profile : [email protected]
Format settings, CABAC : Yes
Format settings, ReFrames : 6 frames
Codec ID : V_MPEG4/ISO/AVC
Duration : 2h 19mn
Bit rate : 1 057 Kbps
Width : 720 pixels
Height : 304 pixels
Display aspect ratio : 2.35:1
Frame rate mode : Variable
Frame rate : 23.976 fps
Color space : YUV
Chroma subsampling : 4:2:0
Bit depth : 8 bits
Scan type : Progressive
Bits/(Pixel*Frame) : 0.201
Stream size : 1.03 GiB (83%)
Writing library : x264 core 112


Audio
ID : 2
Format : AC-3
Format/Info : Audio Coding 3
Mode extension : CM (complete main)
Codec ID : A_AC3
Duration : 2h 19mn
Bit rate mode : Constant
Bit rate : 192 Kbps
Channel(s) : 2 channels
Channel positions : Front: L R
Sampling rate : 48.0 KHz
Bit depth : 16 bits
Compression mode : Lossy
Stream size : 192 MiB (15%)
Language : English





Download:

Aby zobaczyć ukryty tekst musisz być zalogowany, jeżeli nie masz konta zarejestruj się!


or

Aby zobaczyć ukryty tekst musisz być zalogowany, jeżeli nie masz konta zarejestruj się!


or

Aby zobaczyć ukryty tekst musisz być zalogowany, jeżeli nie masz konta zarejestruj się!




Parts 700Mb Linki naprzemienne[/B]



Aby zobaczyć ukryty tekst musisz być zalogowany, jeżeli nie masz konta zarejestruj się!


or

Aby zobaczyć ukryty tekst musisz być zalogowany, jeżeli nie masz konta zarejestruj się!



or

Aby zobaczyć ukryty tekst musisz być zalogowany, jeżeli nie masz konta zarejestruj się!




$ Sprawdzony Upload 100% Satysfakcji
$ Bez rozpakowywania, bez błędów CRC
$ Screeny przedstawiające prawdziwą jakość
$ Bez Hasła





Podziel się !

Delicious'da Share  Share on Facebook  Friendfeed Share  Google Shared  StubmleUpon'da Share  Digg'de Share  Netvibes'de Share  Reddit'de Share RSS Feeds Subscribe!

Powrót
Przeglądasz witrynę jako gość.
Dlatego zachęcamy do rejestracji lub do zalogowania się.

Informacja
Użytkownicy z rangą Gość nie mogą dodawać komentarzy.