Menu

Download

Dziś nas odwiedzili:
Archiwum:
Grudzień 2016 (703)
Listopad 2016 (2434)
Październik 2016 (1961)
Wrzesień 2016 (1857)
Sierpień 2016 (2521)
Lipiec 2016 (2605)


Pokaż wszystkie tagi:
Wejścia na Vorek.pl z:
{referer}



NABÓR NA STANOWISKO


MODERATOR        UPLOADER



Apollo 18 2011 TS READNFO XViD - CHOiCE *1 Link*


OPISOficjalnie, Apollo 17 wystartował w grudniu 1972 roku i była to ostatnia załogowa misja na Księżyc. Rok później, w 1973 roku, Departament Obrony sfinansował kolejną misję, ale tym razem tajną. Wysłani astronauci Nathan i Ben chodząc po powierzchni obcej planety, dokumentują wszystkie wydarzenia. Gdy znajdują dowody na istnienie nowych form życia - muszą pokonać śmiertelną infekcję. Mimo, iż NASA zaprzecza autentyczności jakichkolwiek zdjęć, zapisków i utrzymuje, że żadna taka misja nie miała miejsca - inni twierdzą, że to jedyny prawdziwy powód dlaczego nie odbyło się więcej podróży na Księżyc.

Apollo 18 2011 TS READNFO XViD - CHOiCE


IMDB: http://www.imdb.com/title/tt1772240/ RELEASE DATE: 09/02/11
SIZE: 1.37 gb LENGTH: 1H 14MN
SOURCE: V: RUSSIAN CAMRiP A: OWN HEIGHT: 392
SUBTITLES: ENGLISH WIDTH: 720


INFO:
Video
ID : 0
Format : MPEG-4 Visual
Format profile : Advanced [email protected]
Format settings, BVOP : 2
Format settings, QPel : No
Format settings, GMC : No warppoints
Format settings, Matrix : Default (H.263)
Muxing mode : Packed bitstream
Codec ID : XVID
Codec ID/Hint : XviD
Duration : 1h 14mn
Bit rate : 2 512 Kbps
Width : 720 pixels
Height : 392 pixels
Display aspect ratio : 16:9
Frame rate : 25.000 fps
Color space : YUV
Chroma subsampling : 4:2:0
Bit depth : 8 bits
Scan type : Progressive
Compression mode : Lossy
Bits/(Pixel*Frame) : 0.356
Stream size : 1.30 GiB (95%)
Writing library : XviD 64

Audio
ID : 1
Format : MPEG Audio
Format version : Version 1
Format profile : Layer 3
Mode : Joint stereo
Mode extension : MS Stereo
Codec ID : 55
Codec ID/Hint : MP3
Duration : 1h 14mn
Bit rate mode : Constant
Bit rate : 128 Kbps
Channel(s) : 2 channels
Sampling rate : 44.1 KHz
Compression mode : Lossy
Stream size : 67.9 MiB (5%)
Alignment : Split accross interleaves
Interleave, duration : 40 ms (1.00 video frame)



SCREENY
Apollo 18 2011 TS READNFO XViD - CHOiCE *1 Link*

Apollo 18 2011 TS READNFO XViD - CHOiCE *1 Link*



DOWNLOAD
Aby zobaczyć ukryty tekst musisz być zalogowany, jeżeli nie masz konta zarejestruj się!



Podziel się !

Delicious'da Share  Share on Facebook  Friendfeed Share  Google Shared  StubmleUpon'da Share  Digg'de Share  Netvibes'de Share  Reddit'de Share RSS Feeds Subscribe!

Powrót
Przeglądasz witrynę jako gość.
Dlatego zachęcamy do rejestracji lub do zalogowania się.

Informacja
Użytkownicy z rangą Gość nie mogą dodawać komentarzy.