Menu

Download

Dziś nas odwiedzili:
wojpro, gex1, pit.7777, sproket1, mardra1, brovarek123, pentor, darekgl1968, jaco013, djlemur, Maciej2161, hellmucik, DeejayMalec, dulo123, MISIU11, tomaszo1948, elwro, lepper, demon190219, symoni2008, lopez76, buruburu, lukasz10051, virginiaa, podol76, lipenjusz, karol2005, Andi-diesel, mondia, Fedor11, zakopne, skalski72, Sebool53, jeak, ango, qczi, Tumek73, lenny79, fox57, swatfirerss, huarez44, dejw, lorak56, bazumi20, sharp_99, Lorenz, piurored123, mirek4321, Bóli123, trybsiu, foch5r, Auto-Lux, bodekk2, kriss86pl, GregorRox, FALKON69, mirunia22, magdajawor1, kiecio, Krakus51, 3366, Grzegorz72, P9N7, skajla, tat4, siwy710, BoloLVII, Sarima, aspekt2004, krepel, keram, akak1, kriszak, andy08, smoksmok31, ulaghost, danix20, slay25, gbur17, rumak83, arkadiusz271, adox80, narkusdwa, JoXs, szukisek, hopasiup, artfrst, ARTUROSE, Manias01, globline, jerry1013, papay100, aga2.05, lauenburg, kaszana27, Feniks101, vermigor, inesimariusz, serrafus, geniusloci, trez, pestka210, waldek77, kudek01, tedxvs, marian1999, konradko77, wojtasg, spoli, Marmur, robaczio9, pipipiotr, mariusz242, pepik11, robin163, gento, cichyd1, coruble, Uszka2001, jusia266, zable, buba48, polska00, biggreg, ryszardos69, sayo300, soko-p, splittt, celin, crownart, muldas, machoney1920, xard2906, angelo1969, Cirrus, zibiguzik, andjey, alex, wotar, EdiMar, topikos, weglownia, Bartekn90, buku54, pitereku, nonez, Vanisz, trixi i mila, jarecki500, aj 1971, skarabeusz, Seba1984r, szturmen, secundus, mp3de, wolfx95, Ashigari, tomex2u, and20, Zelwik, malczyce, matexe, cwiras22, jurekaw, EFBOT, monsun65, Svilesis

Archiwum:
Grudzień 2016 (854)
Listopad 2016 (2433)
Październik 2016 (1961)
Wrzesień 2016 (1857)
Sierpień 2016 (2521)
Lipiec 2016 (2605)


Pokaż wszystkie tagi:
Wejścia na Vorek.pl z:
{referer}



NABÓR NA STANOWISKO


MODERATOR        UPLOADER



Rango (2011) ENG.TS.XViD-IMAGiNE


Rango.2011.TS.XViD-IMAGiNE

UPLOAD NA 3 SERWERY

5 % DANYCH NAPRAWCZYCH



Kameleon Rango przechodzi swój trudny okres. Jego głównym zajęciem jest tułaczka po pustyni Mojave. Dochodzi on do pewnego miasteczka opanowanego przez bandytów i kryminalistów. Wkrótce postanawia zostać stróżem prawa w owej mieścinie, aby zwalczać złych, a pomagać dobrym.




Dane techniczne:

Ripper ...........:IMAGiNE
Video Codec.......:XVID
Audio Codec.......:MP3
Audio Bitrate.....:128
Subtitles.........:NIL
Resolution........:688 x 384
IMDb URL..........:http://www.imdb.com/title/tt1192628/
Language..........:ENGLISH
Runtime...........:1h 32mn
Theatre Date......:04/03/11
Release Date......:13/03/11
IMDB Rating.......:7.9/10


DETAILS:

Video
ID : 0
Format : MPEG-4 Visual
Format profile : Advanced [email protected]
Format settings, BVOP : Yes
Format settings, QPel : No
Format settings, GMC : No warppoints
Format settings, Matrix : Default (MPEG)
Muxing mode : Packed bitstream
Codec ID : XVID
Codec ID/Hint : XviD
Duration : 1h 36mn
Bit rate : 1 468 Kbps
Width : 688 pixels
Height : 384 pixels
Display aspect ratio : 16:9
Frame rate : 25.000 fps
Color space : YUV
Chroma subsampling : 4:2:0
Bit depth : 8 bits
Scan type : Progressive
Bits/(Pixel*Frame) : 0.222
Stream size : 1 014 MiB (91%)
Writing library : XviD 61

Audio
ID : 1
Format : MPEG Audio
Format version : Version 1
Format profile : Layer 3
Codec ID : 55
Codec ID/Hint : MP3
Duration : 1h 36mn
Bit rate mode : Constant
Bit rate : 128 Kbps
Channel(s) : 2 channels
Sampling rate : 44.1 KHz
Stream size : 88.4 MiB (8%)
Alignment : Split accross interleaves
Interleave, duration : 40 ms (1.00 video frame)
Writing library : LAME3.98.4





PLIK SAMPLE (sprawdź jakość przed pobraniem całości):


Mirror 1:
Aby zobaczyć ukryty tekst musisz być zalogowany, jeżeli nie masz konta zarejestruj się!


Mirror 2:
Aby zobaczyć ukryty tekst musisz być zalogowany, jeżeli nie masz konta zarejestruj się!


Mirror 3:
Aby zobaczyć ukryty tekst musisz być zalogowany, jeżeli nie masz konta zarejestruj się!





DOWNLOAD
Party po 500 mb, można pobierać naprzemiennie.


Mirror 1:

Aby zobaczyć ukryty tekst musisz być zalogowany, jeżeli nie masz konta zarejestruj się!



lub


Mirror 2:

Aby zobaczyć ukryty tekst musisz być zalogowany, jeżeli nie masz konta zarejestruj się!



lub


Mirror 3:

Aby zobaczyć ukryty tekst musisz być zalogowany, jeżeli nie masz konta zarejestruj się!



Podziel się !

Delicious'da Share  Share on Facebook  Friendfeed Share  Google Shared  StubmleUpon'da Share  Digg'de Share  Netvibes'de Share  Reddit'de Share RSS Feeds Subscribe!

Powrót
Przeglądasz witrynę jako gość.
Dlatego zachęcamy do rejestracji lub do zalogowania się.

Informacja
Użytkownicy z rangą Gość nie mogą dodawać komentarzy.