Menu

Download

Dziś nas odwiedzili:
narkusdwa, cycek77, eree, jano666, jinks13, kkk244240, jaco013, xard2906, ralf1976, Prospector00, figo73, snayper, sir daro 24, agary35, wytaczarz44, Liar, dejw, yonk, matey777, andy08, kuras, jacek40old, heniek_ih, skajla, szybki811, skarabeusz, pixel1194, brovarek123, GunHead, cichyd1, Ambasadoor70, solgerx, MarczelM, kurosumi, igi2, akak1, kat666, klymvm, biznesmen66, mlody2205, misiu1185, piterd14, grzegorz48, feihung, jurek50, Beno182210, panradzio, karton1, nowmarek, sbb1953, Manias01, pentor, tomaszo1948, iruss3, jeak, Sypi, topikos, Andi-diesel, demon190219, wawa998, kanzas, aga2.05, kudek01, mariant, golden2, aronia, Zelwik, mondia, lysy68, waclaw, lukasz10051, polska00, Lorenz, geniusloci, bodekk2, sznurowski, 75tofik, krepel, tomek i ania, Bodzio57, Finder, Mario090673, keram, koziorożec, cze, tat4, buku54, huarez44, kajtek42, lepper, splittt, Dom612, jedrek00711, lauratcv, crownart, adox80, marek6408, secundus, miro72, Krakus51, Fedor11, luka121212, baraxx, marian1999, zieciut2, edmund54, podol76, jerry1013, buba48, victory04, mpawel71, toczev, ulaghost, Sdrov, circus, anetam1, JoXs, ARTUROSE, andino, wotar, qczi, Lukas8, Creative, lyser, renka, lucky170, weenzer, osa31, arkadiusz271, kamelot2012, grygol2, krys49, symoni2008, piurored123, aspekt2004, Auto-Lux, danix20, seat1234, bolo335, prularis, papor, wojtasg, ASTERGO, zbeer, tedxvs, jacolcom, intermilano, robaczio9, Uszka2001, latos2005, RUFO, MARIULA500, konradko77, pipipiotr, jusia266, jojogurt, biggreg, mirek4321, ryszardos69, angelo1969, drenn1, papay100, Bartekn90, joanna72, pluton777777, djlemur, mp3de, celin, spoli, andjey, alex, spot2302, tobi180, sayo300, pepik11, Cirrus, jurczyna, kasi, EdiMar, bowe1969, rw57, mariusz242, aj 1971, nonez, Kamirllo105, waldemarmichniuk, Vanisz, rftgyh, Ashigari, patryk12345, jan000, darekbus, ahmedibnfahlan, Johanson325, jarecki500, ramon, slawol666, smoksmok31, miecio28, EFBOT, virginiaa, Svilesis

Archiwum:
Grudzień 2016 (559)
Listopad 2016 (2434)
Październik 2016 (1961)
Wrzesień 2016 (1857)
Sierpień 2016 (2521)
Lipiec 2016 (2605)


Pokaż wszystkie tagi:
Wejścia na Vorek.pl z:
{referer}



NABÓR NA STANOWISKO


MODERATOR        UPLOADER



Tron Legacy 3D Half SBS 1080p x264

Tron Legacy
2011 | 3D | 1080p | x264 | 11.2 GiB
Genre: 3D, Action, Adventure, Sci-Fi, Thriller


Duration: 125 min
Format: mkv
Audio: english DTS
Size: side-by-side: 11,2GB
Resolution: 1920 x 1080
Genre: 3D, Action, Adventure, Sci-Fi, Thriller

Mediainfo SBS
General
Complete name : Tron.Legacy.3D.2010.ENG.DTS.1080p.3DBD.x264.half.S BS.z-man.mkv
Format : Matroska
File size : 11.2 GiB
Duration : 2h 5mn
Overall bit rate : 12.8 Mbps
Encoded date : UTC 2011-03-10 09:34:39
Writing application : mkvmerge v4.4.0 ('Die Wiederkehr') gebaut am Oct 31 2010 21:52:48
Writing library : libebml v1.0.0 + libmatroska v1.0.0

Video
ID : 1
Format : AVC
Format/Info : Advanced Video Codec
Format profile : [email protected]
Format settings, CABAC : Yes
Format settings, ReFrames : 4 frames
Codec ID : V_MPEG4/ISO/AVC
Duration : 2h 5mn
Bit rate : 11.0 Mbps
Width : 1 920 pixels
Height : 1 080 pixels
Display aspect ratio : 16:9
Frame rate : 23.976 fps
Color space : YUV
Chroma subsampling : 4:2:0
Bit depth : 8 bits
Scan type : Progressive
Bits/(Pixel*Frame) : 0.221
Stream size : 9.62 GiB ( 86% )
Title : Tron.Legacy.3D.2010.ENG.DTS.1080p.3DBD.x264.half.S BS.z-man
Writing library : x264 core 114 r1913 5fd3dce

Audio
ID : 2
Format : DTS
Format/Info : Digital Theater Systems
Codec ID : A_DTS
Duration : 2h 5mn
Bit rate mode : Constant
Bit rate : 1 510 Kbps
Channel(s) : 6 channels
Channel positions : Front: L C R, Side: L R, LFE
Sampling rate : 48.0 KHz
Bit depth : 24 bits
Compression mode : Lossy
Stream size : 1.32 GiB ( 12% )
Language : English

Tron Legacy 3D Half SBS 1080p x264


Download:
Aby zobaczyć ukryty tekst musisz być zalogowany, jeżeli nie masz konta zarejestruj się!



Podziel się !

Delicious'da Share  Share on Facebook  Friendfeed Share  Google Shared  StubmleUpon'da Share  Digg'de Share  Netvibes'de Share  Reddit'de Share RSS Feeds Subscribe!

Powrót
Przeglądasz witrynę jako gość.
Dlatego zachęcamy do rejestracji lub do zalogowania się.

Informacja
Użytkownicy z rangą Gość nie mogą dodawać komentarzy.