Menu

Download

Dziś nas odwiedzili:
Archiwum:
Grudzień 2016 (225)
Listopad 2016 (2437)
Październik 2016 (1966)
Wrzesień 2016 (1859)
Sierpień 2016 (2523)
Lipiec 2016 (2609)


Pokaż wszystkie tagi:
Wejścia na Vorek.pl z:
{referer}



NABÓR NA STANOWISKO


MODERATOR        UPLOADER



Jestem numerem cztery / I Am Number Four (2011) TS.XViD-IMAGiNE [Sub PL]



NAPISY PL

UPLOAD NA 3 SERWERY

5 % DANYCH NAPRAWCZYCH



Głównym bohaterem filmu jest John Smith (Alex Pettyfer). Na pierwszy rzut oka to przeciętny młody mieszkaniec jednego z wielu prowincjonalnych miasteczek w USA. Johnowi daleko jednak do przeciętności. Naprawdę jest uciekinierem z pogrążonej w wojnie planety Lorien, który na Ziemi szuka schronienia. Gdziekolwiek ucieknie, narażony jest na śmiertelne niebezpieczeństwo ze strony bezwzględnych prześladowców. Uwikłany w pozornie spokojną codzienność, musi wybrać między walką o zwykłe życie na Ziemi, a realizacją swojego nadzwyczajnego przeznaczenia. Jest bowiem jednym z dziewięciu wybrańców. Według kolejności, jako numer cztery, teraz to on jest celem.





Dane techniczne:

Video
ID : 0
Format : MPEG-4 Visual
Format profile : Advanced [email protected]
Format settings, BVOP : Yes
Format settings, QPel : No
Format settings, GMC : No warppoints
Format settings, Matrix : Default (MPEG)
Muxing mode : Packed bitstream
Codec ID : XVID
Codec ID/Hint : XviD
Duration : 1h 38mn
Bit rate : 865 Kbps
Width : 720 pixels
Height : 384 pixels
Display aspect ratio : 1.875
Frame rate : 25.000 fps
Resolution : 24 bits
Colorimetry : 4:2:0
Scan type : Progressive
Bits/(Pixel*Frame) : 0.125
Stream size : 611 MiB (86%)
Writing library : XviD 61

Audio
ID : 1
Format : MPEG Audio
Format version : Version 1
Format profile : Layer 3
Codec ID : 55
Codec ID/Hint : MP3
Duration : 1h 38mn
Bit rate mode : Constant
Bit rate : 128 Kbps
Channel(s) : 2 channels
Sampling rate : 44.1 KHz
Resolution : 16 bits
Stream size : 90.3 MiB (13%)
Alignment : Split accross interleaves
Interleave, duration : 40 ms (1.00 video frame)
Interleave, preload duration : 500 ms



SCREENY:

http://imgclub.org/images/74002806fc.jpg
http://imgclub.org/images/7099698597.jpg



DOWNLOAD
Tylko 1 link


Mirror 1:

Aby zobaczyć ukryty tekst musisz być zalogowany, jeżeli nie masz konta zarejestruj się!


lub

Mirror 2:

Aby zobaczyć ukryty tekst musisz być zalogowany, jeżeli nie masz konta zarejestruj się!


lub

Mirror 3:

Aby zobaczyć ukryty tekst musisz być zalogowany, jeżeli nie masz konta zarejestruj się!



Podziel się !

Delicious'da Share  Share on Facebook  Friendfeed Share  Google Shared  StubmleUpon'da Share  Digg'de Share  Netvibes'de Share  Reddit'de Share RSS Feeds Subscribe!

Powrót
Przeglądasz witrynę jako gość.
Dlatego zachęcamy do rejestracji lub do zalogowania się.

Informacja
Użytkownicy z rangą Gość nie mogą dodawać komentarzy.