Menu

Download

Dziś nas odwiedzili:
Archiwum:
Grudzień 2016 (888)
Listopad 2016 (2433)
Październik 2016 (1961)
Wrzesień 2016 (1857)
Sierpień 2016 (2521)
Lipiec 2016 (2605)


Pokaż wszystkie tagi:
Wejścia na Vorek.pl z:
{referer}



NABÓR NA STANOWISKO


MODERATOR        UPLOADER



Miś Yogi / Yogi Bear (2010) [TS XviD] [EN]

Miś Yogi / Yogi Bear (2010) [TS XviD] [EN]

reżyseria: Eric Brevig
scenariusz: Joshua Sternin,Jeffrey Ventimilia
premiera: 18 lutego 2011 (Polska) 17 grudnia 2010 (Świat)
produkcja: Nowa Zelandia, USA
gatunek: Animacja, Familijny, Komedia, Przygodowy

Tom Cavanagh - Strażnik Smith
Christine Taylor - Cindy Bear (głos)
Dan Aykroyd - Miś Yogi (głos)
Justin Timberlake - Miś Boo Boo (głos)
Andrew Daly - Burmistrz Brown
Nathan Corddry - Szef personelu
T.J. Miller - Strażnik Jones
Dean Knowsley - Agent Florimo
Anna Faris - Rachel
Nate Corddry - Szef

Film opowiada o mieszkających w Parku Jellystone niedźwiedziach -  Yogim (głos - Dan Aykroyd) i jego przyjacielu Boo Boo (głos - Justin Timberlake). Pewnego dnia do parku przybywa reporterka (głos - Anna Faris), która staje się obiektem zainteresowań strażnika Smitha.


Yogi Bear 2010 TS V2 XViD-IMAGiNE

Video
ID                               : 0
Format                           : MPEG-4 Visual
Format profile                   : Advanced [email protected]
Format settings, BVOP            : Yes
Format settings, QPel            : No
Format settings, GMC             : No warppoints
Format settings, Matrix          : Default (MPEG)
Muxing mode                      : Packed bitstream
Codec ID                         : XVID
Codec ID/Hint                    : XviD
Duration                         : 1h 12mn
Bit rate                         : 2 586 Kbps
Width                            : 720 pixels
Height                           : 404 pixels
Display aspect ratio             : 16:9
Frame rate                       : 25.000 fps
Color space                      : YUV
Chroma subsampling               : 4:2:0
Bit depth                        : 8 bits
Scan type                        : Progressive
Bits/(Pixel*Frame)               : 0.356
Stream size                      : 1.32 GiB (92%)
Writing library                  : XviD 1.2.1 (UTC 2008-12-04)

Audio
ID                               : 1
Format                           : AC-3
Format/Info                      : Audio Coding 3
Mode extension                   : CM (complete main)
Codec ID                         : 2000
Duration                         : 1h 12mn
Bit rate mode                    : Constant
Bit rate                         : 224 Kbps
Channel(s)                       : 2 channels
Channel positions                : Front: L R
Sampling rate                    : 48.0 KHz
Bit depth                        : 16 bits
Stream size                      : 117 MiB (8%)
Alignment                        : Aligned on interleaves
Interleave, duration             : 40 ms (1.00 video frame)
Interleave, preload duration     : 512 ms

Miś Yogi / Yogi Bear (2010) [TS XviD] [EN]Miś Yogi / Yogi Bear (2010) [TS XviD] [EN]Miś Yogi / Yogi Bear (2010) [TS XviD] [EN]Miś Yogi / Yogi Bear (2010) [TS XviD] [EN]


Waga: 1.44GB

Paczki po 400MB, można pobierać na przemian:

Aby zobaczyć ukryty tekst musisz być zalogowany, jeżeli nie masz konta zarejestruj się!

lub

Aby zobaczyć ukryty tekst musisz być zalogowany, jeżeli nie masz konta zarejestruj się!

lub

Aby zobaczyć ukryty tekst musisz być zalogowany, jeżeli nie masz konta zarejestruj się!

lub

Aby zobaczyć ukryty tekst musisz być zalogowany, jeżeli nie masz konta zarejestruj się!


Paczki po 1GB, można pobierać na przemian:

Aby zobaczyć ukryty tekst musisz być zalogowany, jeżeli nie masz konta zarejestruj się!

lub

Aby zobaczyć ukryty tekst musisz być zalogowany, jeżeli nie masz konta zarejestruj się!

lub

Aby zobaczyć ukryty tekst musisz być zalogowany, jeżeli nie masz konta zarejestruj się!

lub

Aby zobaczyć ukryty tekst musisz być zalogowany, jeżeli nie masz konta zarejestruj się!



Podziel się !

Delicious'da Share  Share on Facebook  Friendfeed Share  Google Shared  StubmleUpon'da Share  Digg'de Share  Netvibes'de Share  Reddit'de Share RSS Feeds Subscribe!

Powrót
Przeglądasz witrynę jako gość.
Dlatego zachęcamy do rejestracji lub do zalogowania się.

Informacja
Użytkownicy z rangą Gość nie mogą dodawać komentarzy.