Menu

Download

Dziś nas odwiedzili:
Archiwum:
Grudzień 2016 (392)
Listopad 2016 (2437)
Październik 2016 (1965)
Wrzesień 2016 (1859)
Sierpień 2016 (2523)
Lipiec 2016 (2609)


Pokaż wszystkie tagi:
Wejścia na Vorek.pl z:
{referer}



NABÓR NA STANOWISKO


MODERATOR        UPLOADER



Romantycy / The Romantics (2010) LiMiTED.DVDRip.XviD-TWiZTED

Romantycy / The Romantics (2010) LiMiTED.DVDRip.XviD-TWiZTED

Siedmioro bliskich przyjaciół spotyka się przed ślubem dwójki z nich.
Problemy nadejdą nieuchronnie, zważywszy na fakt, że panna młoda i druhna od lat rywalizowały o względy pana młodego.

Romantycy / The Romantics (2010) LiMiTED.DVDRip.XviD-TWiZTED

Cztery serwery do wyboru: Hotfile.com, Fileserve.com, Filesonic.com, Bitshare.com
Party można pobierać na przemian
Zawsze 10%Danych Naprawczych (wykluczone błędy CRC)


Info:

Tytuł: The Romantics
Ocena: IMDB - 6.1/10 (301), Filmweb - 7.3/10 (7)
Produkcja: USA
Gatunek: Dramat, Komedia, Romans
Czas trwania: 97 min.
Premiera: 24.01.2010 - Świat
Reżyseria: Galt Niederhoffer
Scenariusz: Galt Niederhoffer

Obsada:

Anna Paquin, Katie Holmes, Josh Duhamel, Adam Brody

Dane techniczne:

Format : AVI
Format/Info : Audio Video Interleave
File size : 700 MiB
Duration : 1h 36mn
Overall bit rate : 1 013 Kbps
Writing application : Nandub v1.0rc2
Writing library : Nandub build 1852/release

Video
ID : 0
Format : MPEG-4 Visual
Format profile : Advanced [email protected]
Format settings, BVOP : Yes
Format settings, QPel : No
Format settings, GMC : No warppoints
Format settings, Matrix : Default (H.263)
Codec ID : XVID
Codec ID/Hint : XviD
Duration : 1h 36mn
Bit rate : 874 Kbps
Width : 608 pixels
Height : 336 pixels
Display aspect ratio : 16:9
Frame rate : 23.976 fps
Color space : YUV
Chroma subsampling : 4:2:0
Bit depth : 8 bits
Scan type : Progressive
Bits/(Pixel*Frame) : 0.178
Stream size : 604 MiB (86%)
Writing library : XviD 1.2.1 (UTC 2008-12-04)

Audio
ID : 1
Format : MPEG Audio
Format version : Version 1
Format profile : Layer 3
Mode : Joint stereo
Mode extension : MS Stereo
Codec ID : 55
Codec ID/Hint : MP3
Duration : 1h 36mn
Bit rate mode : Variable
Bit rate : 128 Kbps
Channel(s) : 2 channels
Sampling rate : 48.0 KHz
Video delay : 384ms
Stream size : 87.1 MiB (12%)
Alignment : Aligned on interleaves
Interleave, duration : 24 ms (0.58 video frame)
Interleave, preload duration : 1211 ms
Writing library : LAME3.90.
Encoding settings : -m j -V 4 -q 2 -lowpass 17.6 --abr 128


DOWNLOAD:

Party można pobierać na przemian:

Aby zobaczyć ukryty tekst musisz być zalogowany, jeżeli nie masz konta zarejestruj się!


Do pobierania z powyższych serwerów polecam program FreeRapid który sam to zrobi za ciebie (obsługuje nie które konta premium np. na Hotfile)
Aby zobaczyć ukryty tekst musisz być zalogowany, jeżeli nie masz konta zarejestruj się!



Podziel się !

Delicious'da Share  Share on Facebook  Friendfeed Share  Google Shared  StubmleUpon'da Share  Digg'de Share  Netvibes'de Share  Reddit'de Share RSS Feeds Subscribe!

Powrót
Przeglądasz witrynę jako gość.
Dlatego zachęcamy do rejestracji lub do zalogowania się.

Informacja
Użytkownicy z rangą Gość nie mogą dodawać komentarzy.