Menu

Download

Dziś nas odwiedzili:
Archiwum:
Grudzień 2016 (822)
Listopad 2016 (2433)
Październik 2016 (1961)
Wrzesień 2016 (1857)
Sierpień 2016 (2521)
Lipiec 2016 (2605)


Pokaż wszystkie tagi:
Wejścia na Vorek.pl z:
{referer}



NABÓR NA STANOWISKO


MODERATOR        UPLOADER



Psychosis |2010| |DVDRip| |ENG|

Psychosis |2010| |DVDRip| |ENG|


Psychosis |2010| |DVDRip| |ENG|
Tytuł : Psychosis
Produkcja : Wielka Brytania
Gatunek : Horror, Thriller
Czas trwania : 89 minut
Premiera : 19.07.2010 - Świat
Reżyseria : Reg Traviss
Scenariusz : Reg Traviss
Język : Eng


Psychosis |2010| |DVDRip| |ENG|

Susan, autorka poczytnych horrorów, przeprowadza się z Kaliforni do prowincjonalnego, angielskiego miasteczka. Jak się okazuje, 15 lat wcześniej doszło w tej okolicy do masowego mordu. Z biegiem czasu wokół Susan i jej domu zaczynają dziać się niewytłumaczalne rzeczy.

Psychosis |2010| |DVDRip| |ENG|

General
Complete name : /home/t16b/Pulpit/DOWN/Psychosis.2010.DVDRip.XviD-VoMiT.avi
Format : AVI
Format/Info : Audio Video Interleave
File size : 702 MiB
Duration : 1h 29mn
Overall bit rate : 1 097 Kbps
Writing application : VirtualDubMod 1.5.10.2 (build 2540/release)
Writing library : VirtualDubMod build 2540/release

Video
ID : 0
Format : MPEG-4 Visual
Format profile : Advanced [email protected]
Format settings, BVOP : Yes
Format settings, QPel : No
Format settings, GMC : No warppoints
Format settings, Matrix : Default (H.263)
Codec ID : XVID
Codec ID/Hint : XviD
Duration : 1h 29mn
Bit rate : 921 Kbps
Width : 640 pixels
Height : 352 pixels
Display aspect ratio : 16:9
Frame rate : 25.000 fps
Color space : YUV
Chroma subsampling : 4:2:0
Bit depth : 8 bits
Scan type : Progressive
Bits/(Pixel*Frame) : 0.164
Stream size : 589 MiB (84%)
Writing library : XviD 1.2.1 (UTC 2008-12-04)

Audio
ID : 1
Format : MPEG Audio
Format version : Version 1
Format profile : Layer 3
Mode : Joint stereo
Mode extension : MS Stereo
Codec ID : 55
Codec ID/Hint : MP3
Duration : 1h 29mn
Bit rate mode : Variable
Bit rate : 160 Kbps
Channel(s) : 2 channels
Sampling rate : 48.0 KHz
Stream size : 104 MiB (15%)
Alignment : Aligned on interleaves
Interleave, duration : 24 ms (0.60 video frame)
Interleave, preload duration : 113 ms
Writing library : LAME3.90.
Encoding settings : -m j -V 4 -q 2 -lowpass 18 --abr 160

Aby zobaczyć ukryty tekst musisz być zalogowany, jeżeli nie masz konta zarejestruj się!

#Tylko 1 link
#Prędkości dla free nawet 500kb/s!!
Wersja dvdrip, eng



Podziel się !

Delicious'da Share  Share on Facebook  Friendfeed Share  Google Shared  StubmleUpon'da Share  Digg'de Share  Netvibes'de Share  Reddit'de Share RSS Feeds Subscribe!

Powrót
Przeglądasz witrynę jako gość.
Dlatego zachęcamy do rejestracji lub do zalogowania się.

Informacja
Użytkownicy z rangą Gość nie mogą dodawać komentarzy.