Menu

Download

Dziś nas odwiedzili:
scorpions793, smoksmok31, bardini, traco, artfrst, levy52, panradzio, majag88, kacper2008, tomex2u, lopez76, marcin_marcin, gasior932, Krzysztof1973, sita1204, waawr, pika01, skyluk, kanapkatorpedo, darekgl1968, MechoTV, Max Killer, solgerx, stanisław, jarek861029, siwy710, tomzam, and20, saper7206, GunHead, hardcore3791, zenszol, bastion4, fazzy99, slay25, geniu7, gwidon1981, kendzior94, harisa95, duninek16, Raf.36, inesimariusz, DeejayMalec, terry258, Auto-Lux, yonk, jacekgmk, johnyb70, JoXs, KECAJ_18, topolski, ulaghost, Ashigari, pbpbpbpbpb, lonej1, snikers77, renka, eree, Proton_1x, xxvxx5, MarczelM, pitereku, ciawek, Liar, igi2, chemik638, bowe1969, amfetaminka, jedrek00711, mogo76, edmund54, elasuc, Fedor11, pysiu_m, Grzegorz72, sproket1, klymvm, Andi-diesel, kodotorrva, JurekO, bulkotnik, cybulx, priv, mahone78, niasiaguntos, tomek i ania, lukaszek17, -julius-, sandacz53, szukisek, marcindziki1, mwita3, rumak83, eneasz, zbeer, bokser123, slabin, buku54, ravler89, zachod25, nowmarek, trigall, ango, mach12, cze, Mario090673, wloodo, aka93, demon190219, misek1, miecio28, ralf1976, jacolcom, pentor, gbur17, jurek50, tomaszo1948, pawel97, szturmen, narkusdwa, malczyce, piterd14, szakal, dulo123, mks, jupkeennss, rutkowski20, waldek77, gerard, qczi, adikos34, topikos, Feniks101, enigma1952, adam101102, bokkosa, supperbin, lukasz10051, Matthew67, osa31, sowiczi, zakopne, weenzer, pucini, papay100, darekbus, jpwko, buba48, pixel1194, mrozek8, mamata, keram, virginiaa, matey777, baraxx, danix20, wfman, drls1989, Krakus51, adox80, trez, lauratcv, Sarima, marian1999, aspekt2004, mobil199, kajtek42, lyser, mariant, LeoMarkus, jinks13, posejdon, Sdrov, wojtasg, ASTERGO, wotar, lordsiur, lepper, Painkiller212, rencista39, arkadiusz271, crownart, sayo300, krepel, andy08, monisia5, spoli, miodowe, mondia, Sypi, jeak, krys49, grygol2, misiu1185, symoni2008, Manias01, Lukas8, kamelot2012, Uszka2001, RUFO, maciej1900, fox57, kudek01, jerry1013, tedxvs, pipipiotr, konradko77, margaretka62, elwro, zibim, splittt, ryszardos69, tobi180, jano666, jusia266, pepik11, kat666, krewetka105, biggreg, Cirrus, xard2906, piotrek38, Beno182210, Kwiatek2009, alex, skarabeusz, Bartekn90, andjey, Vanisz, angelo1969, celin, mp3de, Zelwik, brovarek123, P.P.P., jarecki500, maruda3773, bazumi20, EdiMar, joanna72, aj 1971, ewa1971, Erik, Kamirllo105, mariusz242, skajla, Mussstaaang, ggtomy, secundus, Seba1984r, EFBOT, cris2111, Johanson325, Anastazja001, Svilesis, jurczyna, Trytonik, karbor83, momo1410, akak1, vasiwasyl

Archiwum:
Grudzień 2016 (761)
Listopad 2016 (2434)
Październik 2016 (1961)
Wrzesień 2016 (1857)
Sierpień 2016 (2521)
Lipiec 2016 (2605)


Pokaż wszystkie tagi:
Wejścia na Vorek.pl z:
{referer}



NABÓR NA STANOWISKO


MODERATOR        UPLOADER



Little Fockers TS XViD v2 - IMAGiNE




UPLOAD NA 2 SERWERY

PARTY PO 500 MB

5 % DANYCH NAPRAWCZYCH



Musiało upłynąć dziesięć lat, jak również pojawić się dwójka dzieci, żeby w końcu Greg zaskarbił sobie zaufanie twardego i nieufnego teścia. Jednak wystarczyło, żeby borykający się z problemami finansowymi Greg podjął pracę w firmie farmaceutycznej, w której ma za koleżankę seksowną dziewczynę, żeby wszystkie wątpliwości Jacka co do zięcia wróciły ze zdwojoną siłą. Dla Grega nie mogłoby być na takie próby gorszego momentu. Z jednej strony musi robić dobre wrażenie na dyrektorce prestiżowej prywatnej szkoły, do której chodzą bliźniaki, z drugiej, ciągle zmaga się z podejrzanym kierownikiem budowy którego wieczne opóźnienia w remoncie wymarzonego domu stawiają pod znakiem zapytania przyjęcie urodzinowe dzieciaków. Jakby tego wszystkiego było mało, Greg musi dawać odpór umizgom niezwykle seksownej koleżanki z pracy.



Dane Techniczne:


Video
Format : MPEG-4 Visual
Codec ID : XVID
Codec ID/Hint : XviD
Duration : 1h 33mn
Bit rate : 1 973 Kbps
Width : 720 pixels
Height : 400 pixels
Frame rate : 25.000 fps
Stream size : 1.29 GiB (93%)
Audio
Format : MPEG Audio
Bit rate : 128 Kbps
Channel(s) : 2 channels
Sampling rate : 44.1 KHz
Resolution : 16 bits
Stream size : 85.6 MiB (6%)





DOWNLOAD:


Mirror 1:

Aby zobaczyć ukryty tekst musisz być zalogowany, jeżeli nie masz konta zarejestruj się!


lub

Mirror 2:

Aby zobaczyć ukryty tekst musisz być zalogowany, jeżeli nie masz konta zarejestruj się!



Podziel się !

Delicious'da Share  Share on Facebook  Friendfeed Share  Google Shared  StubmleUpon'da Share  Digg'de Share  Netvibes'de Share  Reddit'de Share RSS Feeds Subscribe!

Powrót
Przeglądasz witrynę jako gość.
Dlatego zachęcamy do rejestracji lub do zalogowania się.

Informacja
Użytkownicy z rangą Gość nie mogą dodawać komentarzy.