Menu

Download

Dziś nas odwiedzili:
Archiwum:
Grudzień 2016 (830)
Listopad 2016 (2433)
Październik 2016 (1961)
Wrzesień 2016 (1857)
Sierpień 2016 (2521)
Lipiec 2016 (2605)


Pokaż wszystkie tagi:
Wejścia na Vorek.pl z:
{referer}



NABÓR NA STANOWISKO


MODERATOR        UPLOADER




Mr Nobody (2009) Extended 480p BRRip XviD DUAL AC3 [2.49 GB]

Mr Nobody (2009) Extended 480p BRRip XviD DUAL AC3 [2.49 GB]
Language: English
141 min | AVI | 720x304 | 24.000 fps | 192 Kbps | 48.0 KHz | 2.49 GB
Genre: Drama | Fantasy | Romance | Sci-Fi


Nemo Nobody leads an ordinary existence at his wife's side, Elise, and their 3 children until the day when reality skids and he wakes up as an old man in the year 2092. At 120, Mr. Nobody is both the oldest man in the world and the last mortal of a new mankind where nobody dies anymore. But that doesn't seem to interest or bother him very much. The only questions that preoccupy him in the present is whether he lived the right life for himself, loved the woman whom he was supposed to love, and had the children whom he was meant to have... now his purpose is to find the right answer.Written by Anonymous
Director: Jaco Van Dormael

General
Complete name : D:BTRGMr Nobody 2009 Extended 480p BRRip XviD DUAL AC3 - BTRG.avi
Format : AVI
Format/Info : Audio Video Interleave
Format profile : OpenDML
File size : 2.47 GiB
Duration : 2h 35mn
Overall bit rate : 2 271 Kbps
Writing application : AVI-Mux GUI 1.17.8.3, Feb 16 201019:42:50

Video
ID : 0
Format : MPEG-4 Visual
Format profile : [email protected]
Format settings, BVOP : Yes
Format settings, QPel : No
Format settings, GMC : No warppoints
Format settings, Matrix : Custom
Muxing mode : Packed bitstream
Codec ID : XVID
Codec ID/Hint : XviD
Duration : 2h 35mn
Bit rate : 1 623 Kbps
Width : 720 pixels
Height : 304 pixels
Display aspect ratio : 2.35:1
Frame rate : 24.000 fps
Resolution : 24 bits
Colorimetry : 4:2:0
Scan type : Progressive
Bits/(Pixel*Frame) : 0.309
Stream size : 1.76 GiB (71%)
Writing library : XviD 1.2.1 (UTC 2008-12-04)

Audio #1
ID : 1
Format : AC-3
Format/Info : Audio Coding 3
Codec ID : 2000
Duration : 2h 35mn
Bit rate mode : Constant
Bit rate : 192 Kbps
Channel(s) : 2 channels
Channel positions : L R
Sampling rate : 48.0 KHz
Stream size : 214 MiB (8%)
Alignment : Aligned on interleaves
Interleave, duration : 64 ms (1.54 video frames)
Interleave, preload duration : 192 ms
Title : Mr Nobody TrSes

Audio #2
ID : 2
Format : AC-3
Format/Info : Audio Coding 3
Codec ID : 2000
Duration : 2h 35mn
Bit rate mode : Constant
Bit rate : 448 Kbps
Channel(s) : 6 channels
Channel positions : Front: L C R, Surround: L R, LFE
Sampling rate : 48.0 KHz
Stream size : 499 MiB (20%)
Alignment : Aligned on interleaves
Interleave, duration : 64 ms (1.54 video frames)
Interleave, preload duration : 192 ms


Mr Nobody (2009) Extended 480p BRRip XviD DUAL AC3 [2.49 GB]




Download (Filesonic)
http://www.filesonic.com/file/54969222/Mr Nobody 2009 Extended 480p BRRip XviD.part1.rar
http://www.filesonic.com/file/54969570/Mr Nobody 2009 Extended 480p BRRip XviD.part2.rar
http://www.filesonic.com/file/54970066/Mr Nobody 2009 Extended 480p BRRip XviD.part3.rar
http://www.filesonic.com/file/54970294/Mr Nobody 2009 Extended 480p BRRip XviD.part4.rar
http://www.filesonic.com/file/54970802/Mr Nobody 2009 Extended 480p BRRip XviD.part5.rar
http://www.filesonic.com/file/54971218/Mr Nobody 2009 Extended 480p BRRip XviD.part6.rar
http://www.filesonic.com/file/54971364/Mr Nobody 2009 Extended 480p BRRip XviD.part7.rar

Mirror (Bitshare)
http://bitshare.com/files/a87zm05m/Mr-Nobody-2009-Extended-480p-BRRip-XviD.part1.rar.html
http://bitshare.com/files/7y4epuog/Mr-Nobody-2009-Extended-480p-BRRip-XviD.part2.rar.html
http://bitshare.com/files/dphc0mpg/Mr-Nobody-2009-Extended-480p-BRRip-XviD.part3.rar.html
http://bitshare.com/files/h408lba2/Mr-Nobody-2009-Extended-480p-BRRip-XviD.part4.rar.html
http://bitshare.com/files/8cj22mkj/Mr-Nobody-2009-Extended-480p-BRRip-XviD.part5.rar.html
http://bitshare.com/files/9ifeflno/Mr-Nobody-2009-Extended-480p-BRRip-XviD.part6.rar.html
http://bitshare.com/files/vsofamgg/Mr-Nobody-2009-Extended-480p-BRRip-XviD.part7.rar.html

DOWNLOAD MY COLLECTION (ATTENTION HOT!!!)
http://www.filesonic.com/folder/b668e5abf8f774b6b



Podziel się !

Delicious'da Share  Share on Facebook  Friendfeed Share  Google Shared  StubmleUpon'da Share  Digg'de Share  Netvibes'de Share  Reddit'de Share RSS Feeds Subscribe!

Powrót
Przeglądasz witrynę jako gość.
Dlatego zachęcamy do rejestracji lub do zalogowania się.

Informacja
Użytkownicy z rangą Gość nie mogą dodawać komentarzy.