Menu

Download

Dziś nas odwiedzili:
coruble, toudi1, dulo123, feihung, gwidon1981, bastion4, pekaer, crossway, bob, jojogurt, leszek2511, womi10, jarek861029, ramzes542, przymi, MARIULA500, ociec22, geniu7, KECAJ_18, cris2111, joanna72, symoni2008, dragon2012, pionek21, Mazip007, danix20, -julius-, Sebool53, BULIAJ, Karlos2150, sproket1, Faldzik, jurczyna, sailent, swen7, rutkowski20, balanga11, bodekk2, skyluk, elasuc, anetam1, Ireland29, smoksmok31, Mlody12478, trez, santa3, szymo14, mart73, Antek, kalimieckrowa, zampel, zenon331, puedros57, omega1204, Kamirllo105, bardini, wojtas1000, rw57, Bodzio57, momo1410, kwankrzy1, Donaj, picer123, pietiak77, tomek7221, barteklublin111, johnyb70, cyrzan4, tomaszlegion, Ashigari, karbor83, bolo335, Sdrov, marcindziki1, pit.7777, jarro40, mirunia22, pysiu_m, kacper2008, szukisek, calineczka92, 3366, djlemur, ralf1976, schmeichel27, cycek77, zyga, matrix^81, robertinoac1, cwiras22, jano666, tedxvs, pika01, semira, Proton_1x, Rogall, lukasz10051, karat, tadeuszo7, majag88, tlisiak80, splittt, piotr1666, iruss3, piotrekBa, mrozek8, tom811, wasyl75, zpcytadela, tyciuni, jacaalvaro, Lorenz, robanek01, tomaszo1948, syaro, camil_86, wafel_ll, kroll5, tomsosna, JoXs, trigall, tomaszek24, pj_79, kalwap3, Creative, pentor, pixel1194, benq77, hahn, podol76, lukaszek17, skrzyneczka112, kajtek42, amus2, areczek971, incubus, karton1, przemo_geremi, sayo300, PumaXP, ARTUROSE, 2lon, monsun65, lukasz666666, adamusasior122, drenn1, bogdanbig, waclaw, jaco013, kanzas, kwasek, Grad13, clarion, ciawek, tomek i ania, Sypi, rumak83, migotek, Trytonik, Fedor11, ElemenT8822, ziuta, raabartek, jeno10, bialy219, xmiro, fragles23, ulaghost, andy08, krepel, Konradp23, mwita3, seat1234, kolektor77, lysy68, andrzejpfx, slapot78, MarczelM, rodzynek1983, FALKON69, Feniks101, gargamel_50, biggreg, wlodek66, waawr, pawnan, tobi180, mlody2205, mangus, MISIU11, lauenburg, seba512, luizatomek, beduin666, latos2005, misio1960, pychu007, Bobbis, whisky65, xxvxx5, cze, bronek65, darekgl1968, draco, klymvm, Liar, lonej1, Grav1ty, Manias01, brovarek123, PadrePio, mach12, zakopne, pudlisz, slawo79, topikos, WeilandT, weenzer, ciołek12, mondia, lorak56, szturmen, piterd14, levy52, misiu1185, pawciopokemon, romi1976, kkk244240, Petair, bulkotnik, kasi, adox80, crownart, renka, pirek, Estek1, Bartekn90, kudek01, aspekt2004, buruburu, laewa, Zelwik, yonk, solgerx, miodowe, koziorożec, mp3de, artfrst, vermigor, agary35, adam1neo, dejw, joyeczek, Sarima, mart1nof, GunHead, pawel19677m, Siegfried, geniusloci, pitereku, lepper, sharp_99, baraxx, Krakus51, buku54, fazzy99, figo73, inesimariusz, angelo1969, pepik11, mariant, grzes997, foch5r, eneasz, igi2, arkadiusz271, gawron.1983, spoli, darekbus, wotar, paul zawadzki, kako181, jasiek700, wytaczarz44, Oscar58, topolski, druidx, polska00, pipipiotr, eree, spot2302, Marek.b58, nonez, jerry1013, robaczio9, xard2906, janek12, botox35, piurored123, bylik71, akak1, RUFO, artekplay, EdiMar, wawa998, jinks13, andjey, mks, circus, celin, 17051970, jacekgmk, ahagner, alex, rysiek975, Matthew67, przemek.c, mpawel71, Erik, jpwko, snayper, mogo76, jarecki500, mardra1, miesniak, Auto-Lux, Cirrus, lopez138, P.P.P., mariusz242, Zakapior77, aro383, crashed323, BONZOH, aj 1971, amfa07, slawol666, Vanisz, adrianno, tom7517, spam9580, gento, Seba1984r, narkusdwa, fox57, skajla, andino, virginiaa, Ambasadoor70, EFBOT, Svilesis, CCC59KXJ

Archiwum:
Grudzień 2016 (336)
Listopad 2016 (2437)
Październik 2016 (1966)
Wrzesień 2016 (1859)
Sierpień 2016 (2523)
Lipiec 2016 (2609)


Pokaż wszystkie tagi:
Wejścia na Vorek.pl z:
{referer}



NABÓR NA STANOWISKO


MODERATOR        UPLOADER



Miłość i inne używki / Love and Other Drugs  (2010) [TS XviD] [EN]

Miłość i inne używki / Love and Other Drugs (2010) [TS XviD] [EN]

reżyseria: Edward Zwick
scenariusz: Charles Randolph, Marshall Herskovitz
premiera: 11 lutego 2011 (Polska) 4 listopada 2010 (Świat)
produkcja: USA
gatunek: Dramat, Komedia, Romans

Anne Hathaway - Maggie Murdock
Jake Gyllenhaal - Jamie Randall
Jaimie Alexander - Carol
Hank Azaria - Dr Knight
Oliver Platt - Bruce Jackson
Megan Ferguson - Farrah
Katheryn Winnick - Lisa
George Segal - Dr James Randall
Brenna Roth - Przyjaciółka Maggie
Nikki Deloach - Christy

Przedstawiciel farmaceutyczny (Jake Gyllenhaal) sprzedaje viagrę, starając się utrzymać na powierzchni rynku farmaceutycznego. Umawia się z młoda kobietą (Anne Hathaway), która choruje na Parkinsona. Zaczyna się rodzić między nimi uczucie.


Love And Other Drugs TS XViD-IMAGINE

Video
ID                               : 0
Format                           : MPEG-4 Visual
Format profile                   : Advanced [email protected]
Format settings, BVOP            : Yes
Format settings, QPel            : No
Format settings, GMC             : No warppoints
Format settings, Matrix          : Default (MPEG)
Muxing mode                      : Packed bitstream
Codec ID                         : XVID
Codec ID/Hint                    : XviD
Duration                         : 1h 47mn
Bit rate                         : 1 693 Kbps
Width                            : 720 pixels
Height                           : 368 pixels
Display aspect ratio             : 1.957
Frame rate                       : 25.000 fps
Resolution                       : 24 bits
Colorimetry                      : 4:2:0
Scan type                        : Progressive
Bits/(Pixel*Frame)               : 0.256
Stream size                      : 1.28 GiB (92%)
Writing library                  : XviD 1.2.1 (UTC 2008-12-04)

Audio
ID                               : 1
Format                           : MPEG Audio
Format version                   : Version 1
Format profile                   : Layer 3
Codec ID                         : 55
Codec ID/Hint                    : MP3
Duration                         : 1h 47mn
Bit rate mode                    : Constant
Bit rate                         : 128 Kbps
Channel(s)                       : 2 channels
Sampling rate                    : 44.1 KHz
Resolution                       : 16 bits
Stream size                      : 98.7 MiB (7%)
Alignment                        : Split accross interleaves
Interleave, duration             : 40 ms (1.00 video frame)
Interleave, preload duration     : 500 ms

Miłość i inne używki / Love and Other Drugs  (2010) [TS XviD] [EN]Miłość i inne używki / Love and Other Drugs  (2010) [TS XviD] [EN]Miłość i inne używki / Love and Other Drugs  (2010) [TS XviD] [EN]Miłość i inne używki / Love and Other Drugs  (2010) [TS XviD] [EN]


Waga: 1.40GB

Paczki po 400MB, można pobierać na przemian:

Aby zobaczyć ukryty tekst musisz być zalogowany, jeżeli nie masz konta zarejestruj się!

lub

Aby zobaczyć ukryty tekst musisz być zalogowany, jeżeli nie masz konta zarejestruj się!

lub

Aby zobaczyć ukryty tekst musisz być zalogowany, jeżeli nie masz konta zarejestruj się!

lub

Aby zobaczyć ukryty tekst musisz być zalogowany, jeżeli nie masz konta zarejestruj się!


Paczki po 1GB, można pobierać na przemian:

Aby zobaczyć ukryty tekst musisz być zalogowany, jeżeli nie masz konta zarejestruj się!

lub

Aby zobaczyć ukryty tekst musisz być zalogowany, jeżeli nie masz konta zarejestruj się!

lub

Aby zobaczyć ukryty tekst musisz być zalogowany, jeżeli nie masz konta zarejestruj się!



Podziel się !

Delicious'da Share  Share on Facebook  Friendfeed Share  Google Shared  StubmleUpon'da Share  Digg'de Share  Netvibes'de Share  Reddit'de Share RSS Feeds Subscribe!

Powrót
Przeglądasz witrynę jako gość.
Dlatego zachęcamy do rejestracji lub do zalogowania się.

Informacja
Użytkownicy z rangą Gość nie mogą dodawać komentarzy.