Menu

Download

Dziś nas odwiedzili:
Archiwum:
Grudzień 2016 (613)
Listopad 2016 (2434)
Październik 2016 (1961)
Wrzesień 2016 (1857)
Sierpień 2016 (2521)
Lipiec 2016 (2605)


Pokaż wszystkie tagi:
Wejścia na Vorek.pl z:
{referer}



NABÓR NA STANOWISKO


MODERATOR        UPLOADER



Megamocny / Megamind (2010) [SCR XviD] [EN]

Megamocny / Megamind (2010) [SCR XviD] [EN]

reżyseria: Anna Apostolakis-Gluzińska, Tom McGrath
scenariusz: Alan J. Schoolcraft, Brent Simons
premiera: 6 stycznia 2011 (Polska) 28 października 2010 (Świat)
produkcja: USA
gatunek: Animacja, Familijny, Komedia, Sci-Fi

Will Ferrell - Megamocny (głos)
Brad Pitt - Metro Man (głos)
Tina Fey - Roxanne Ritchi (głos)
Jonah Hill - Titan (głos)
David Cross - Minion (głos)
Justin Theroux - Ojciec Megaminda (głos)
Ben Stiller - Bernard (głos)
Jessica Schulte - Mama Megaminda (głos)
Tom McGrath - Lord Scott / Strażnik więzienny (głos)
Emily Nordwind - Lady Scott (głos)

Twórcy "Shreka", "Madagaskaru" i "Kung Fu Panda" przedstawiają nowego bohatera diabolicznego Ooberminda, który od ponad 20 lat usiłuje podbić Ziemię, za każdym razem jednak, jego plany krzyżuje zamaskowany super-bohater Metro Man. Wszystko zmienia się w dniu, kiedy Oobermind podczas jednej ze swoich akcji przypadkowo zabija Metro Mana. Nie mając już do pokonania żadnego wroga, zniechęcony geniusz zła postanawia stworzyć sobie nowego super-przeciwnika - większego, lepszego i silniejszego niż ten jakim kiedykolwiek był Metro Man. Kiedy jednak rywal Ooberminda zaczyna prowadzić własną wojnę, której celem jest zniszczenie świata, ten musi zdecydować: Czy potrafi pokonać własny (teraz) diaboliczny twór? Czy najinteligentniejszy człowiek świata jest w stanie podjąć błyskotliwą decyzję? A może Geniusz Zła przejdzie na drugą stronę i stanie się Bohaterem własnej historii?


Megamind 2010 SCR XViD AC3-IMAGiNE

Video
ID                               : 0
Format                           : MPEG-4 Visual
Format profile                   : Advanced [email protected]
Format settings, BVOP            : Yes
Format settings, QPel            : No
Format settings, GMC             : No warppoints
Format settings, Matrix          : Default (H.263)
Muxing mode                      : Packed bitstream
Codec ID                         : XVID
Codec ID/Hint                    : XviD
Duration                         : 1h 35mn
Bit rate                         : 1 783 Kbps
Width                            : 720 pixels
Height                           : 400 pixels
Display aspect ratio             : 16:9
Frame rate                       : 29.970 fps
Color space                      : YUV
Chroma subsampling               : 4:2:0
Bit depth                        : 8 bits
Scan type                        : Progressive
Compression mode                 : Lossy
Bits/(Pixel*Frame)               : 0.207
Stream size                      : 1.19 GiB (90%)
Writing library                  : XviD 1.1.2 (UTC 2006-11-01)

Audio
ID                               : 1
Format                           : AC-3
Format/Info                      : Audio Coding 3
Mode extension                   : CM (complete main)
Codec ID                         : 2000
Duration                         : 1h 35mn
Bit rate mode                    : Constant
Bit rate                         : 192 Kbps
Channel(s)                       : 2 channels
Channel positions                : Front: L R
Sampling rate                    : 48.0 KHz
Bit depth                        : 16 bits
Compression mode                 : Lossy
Stream size                      : 131 MiB (10%)
Alignment                        : Aligned on interleaves
Interleave, duration             : 33 ms (1.00 video frame)
Interleave, preload duration     : 512 ms

Megamocny / Megamind (2010) [SCR XviD] [EN]Megamocny / Megamind (2010) [SCR XviD] [EN]Megamocny / Megamind (2010) [SCR XviD] [EN]Megamocny / Megamind (2010) [SCR XviD] [EN]


Waga: 1.36GB

Paczki po 400MB, można pobierać na przemian:

Aby zobaczyć ukryty tekst musisz być zalogowany, jeżeli nie masz konta zarejestruj się!

lub

Aby zobaczyć ukryty tekst musisz być zalogowany, jeżeli nie masz konta zarejestruj się!

lub

Aby zobaczyć ukryty tekst musisz być zalogowany, jeżeli nie masz konta zarejestruj się!

lub

Aby zobaczyć ukryty tekst musisz być zalogowany, jeżeli nie masz konta zarejestruj się!


Paczki po 1GB, można pobierać na przemian:

Aby zobaczyć ukryty tekst musisz być zalogowany, jeżeli nie masz konta zarejestruj się!

lub

Aby zobaczyć ukryty tekst musisz być zalogowany, jeżeli nie masz konta zarejestruj się!

lub

Aby zobaczyć ukryty tekst musisz być zalogowany, jeżeli nie masz konta zarejestruj się!



Podziel się !

Delicious'da Share  Share on Facebook  Friendfeed Share  Google Shared  StubmleUpon'da Share  Digg'de Share  Netvibes'de Share  Reddit'de Share RSS Feeds Subscribe!

Powrót
Przeglądasz witrynę jako gość.
Dlatego zachęcamy do rejestracji lub do zalogowania się.

Informacja
Użytkownicy z rangą Gość nie mogą dodawać komentarzy.