Menu

Download

Dziś nas odwiedzili:
wasyl75, Lorenz, seba512, Feniks101, lukasz666666, andrzejpfx, kat666, JurekO, bodekk2, Ireland29, plama79, PadrePio, anetam1, tirak67, foch5r, pietiak77, bw1980, jacekgmk, bastion4, gargamel_50, mlody2205, narkusdwa, klymvm, areczek971, misio1960, kkk244240, raptyk, pio.sub, marecki28, Villa122878, yaro97, lotnikow45, rodzynek1983, renka, joyeczek, drenn1, zbivor, lucky170, jano666, laewa, zosiaz, xxvxx5, pysiu_m, czechosos, coruble, lauratcv, Raf.36, sayo300, joanna72, buruburu, sailent, anetpio, lonej1, matey777, adamusasior122, symoni2008, spot2302, pawciopokemon, cyton, figo73, topolski, zbyszekr, amilo, kwasek, pbpbpbpbpb, marekdudi, glut1510, Liar, keram, levy52, artekplay, igi2, cycek77, huano877, sharp_99, lepper, gruby1001, Tadex2014, yonk, cichyd1, fazzy99, pawo, amfa07, wytaczarz44, solgerx, hellmucik, jurekaw, jedrek00711, karton1, trybsiu, Grzegorz72, MarczelM, lenny79, Finder, bylik71, wlodek66, skyluk, brovarek123, adam101102, osa31, JoXs, pawnan, werona1, 3366, sandoran1962, Marmur, mrozek8, szybki811, tomaszo1948, bart85, leszek2009, karbor83, skarabeusz, Manias01, szakal, bodzio1025, wwwalka, Fedor11, lukaszek17, daizor, zakopne, krysur2001, Amnessia85, jinks13, krepel, raabartek, cze, pj_79, markus67, kanzas, lyser, siwy710, adamczar, mwita3, Grad13, bolo335, sandacz53, tat4, ralf1976, Trytonik, bogdanbig, szulerus, stanley_pl, KECAJ_18, weenzer, tyfutenkul, mahone78, adamciu, Beno182210, ango, tomaszlegion, clio2004, Mario090673, qczi, Vanisz, madein77, geniusloci, jerry1013, mpawel71, seat1234, adox80, mart1nof, mondia, zibim, rumak83, karol2005, jac612, mariant, piotrus190211, czesie_k, monsun65, dulo123, abaabaaba, mp3de, guma, elwro, jeak, zbeer, artfrst, podol76, johnyb70, janusz56, qwerty1945, andy08, Sdrov, wfman, Krakus51, piterd14, kudek01, pychu007, wotar, puszek67, majkel_gti, trez, GunHead, musio666, iruss3, balanga11, ASTERGO, akak1, grygol2, jasielec, sita1204, 17051970, rysiek975, huarez44, kamelot2012, papay100, adasek.u, darekbus, Bartekn90, pepik11, mr36, apochec, wojtasg, Lukas8, robaczio9, zibiguzik, Cirrus, machoney1920, ryszardos69, nonez, mirek4321, mart73, splittt, mogo76, angelo1969, spoli, jusia266, kajtek42, EdiMar, andjey, pipipiotr, P.P.P., tedxvs, pitereku, lorak56, rudagemba, crownart, bazarek, buku54, szturmen, jarecki500, rencista39, aspekt2004, mariusz242, emilianox, Kamirllo105, aj 1971, konradko77, karas273, victory04, Zelwik, gbur17, tom7517, biggreg, Zakapior77, crashed323, and20, ramon, virginiaa, miesniak, skajla, miodowe, EFBOT, Svilesis

Archiwum:
Grudzień 2016 (148)
Listopad 2016 (2439)
Październik 2016 (1967)
Wrzesień 2016 (1859)
Sierpień 2016 (2523)
Lipiec 2016 (2609)


Pokaż wszystkie tagi:
Wejścia na Vorek.pl z:
{referer}



NABÓR NA STANOWISKO


MODERATOR        UPLOADER



Poznaj naszą rodzinkę / Little Fockers (2010) [720p TS XviD] [EN]

Poznaj naszą rodzinkę / Little Fockers (2010) [720p TS XviD] [EN]

reżyseria: Paul Weitz
scenariusz: John Hamburg, Larry Stuckey
premiera: 25 grudnia 2010 (Polska) 22 grudnia 2010 (Świat)
produkcja: USA
gatunek: Komedia

Robert De Niro - Jack Byrnes
Ben Stiller - Greg Focker
Owen Wilson - Kevin Rawley
Dustin Hoffman - Bernie Focker
Barbra Streisand - Roz Focker
Blythe Danner - Dina Byrnes
Teri Polo - Pam Focker
Jessica Alba - Andi Garcia
Laura Dern - Prudence
Daisy Tahan - Samantha Focker

Tym razem rodziny Fockerów i Byrnesów przygotowują się na narodziny  pierwszego wnuka.


Little Fockers 2010 720p TS XViD-IMAGiNE

Video
ID                               : 0
Format                           : MPEG-4 Visual
Format profile                   : Advanced [email protected]
Format settings, BVOP            : Yes
Format settings, QPel            : No
Format settings, GMC             : No warppoints
Format settings, Matrix          : Default (H.263)
Muxing mode                      : Packed bitstream
Codec ID                         : XVID
Codec ID/Hint                    : XviD
Duration                         : 1h 33mn
Bit rate                         : 5 402 Kbps
Width                            : 1 280 pixels
Height                           : 720 pixels
Display aspect ratio             : 16/9
Frame rate                       : 25.000 fps
Resolution                       : 24 bits
Colorimetry                      : 4:2:0
Scan type                        : Progressive
Bits/(Pixel*Frame)               : 0.234
Stream size                      : 3.53 GiB (98%)
Writing library                  : XviD 1.1.2 (UTC 2006-11-01)

Audio
ID                               : 1
Format                           : MPEG Audio
Format version                   : Version 1
Format profile                   : Layer 3
Codec ID                         : 55
Codec ID/Hint                    : MP3
Duration                         : 1h 33mn
Bit rate mode                    : Constant
Bit rate                         : 128 Kbps
Channel(s)                       : 2 channels
Sampling rate                    : 44.1 KHz
Resolution                       : 16 bits
Stream size                      : 85.6 MiB (2%)
Alignment                        : Split accross interleaves
Interleave, duration             : 40 ms (1.00 video frame)
Interleave, preload duration     : 500 ms

Poznaj naszą rodzinkę / Little Fockers (2010) [720p TS XviD] [EN]Poznaj naszą rodzinkę / Little Fockers (2010) [720p TS XviD] [EN]Poznaj naszą rodzinkę / Little Fockers (2010) [720p TS XviD] [EN]Poznaj naszą rodzinkę / Little Fockers (2010) [720p TS XviD] [EN]


Waga: 3.70GB

Paczki po 400MB, można pobierać na przemian:

Aby zobaczyć ukryty tekst musisz być zalogowany, jeżeli nie masz konta zarejestruj się!

lub

Aby zobaczyć ukryty tekst musisz być zalogowany, jeżeli nie masz konta zarejestruj się!

lub

Aby zobaczyć ukryty tekst musisz być zalogowany, jeżeli nie masz konta zarejestruj się!

lub

Aby zobaczyć ukryty tekst musisz być zalogowany, jeżeli nie masz konta zarejestruj się!


Paczki po 1GB, można pobierać na przemian:

Aby zobaczyć ukryty tekst musisz być zalogowany, jeżeli nie masz konta zarejestruj się!

lub

Aby zobaczyć ukryty tekst musisz być zalogowany, jeżeli nie masz konta zarejestruj się!

lub

Aby zobaczyć ukryty tekst musisz być zalogowany, jeżeli nie masz konta zarejestruj się!



Podziel się !

Delicious'da Share  Share on Facebook  Friendfeed Share  Google Shared  StubmleUpon'da Share  Digg'de Share  Netvibes'de Share  Reddit'de Share RSS Feeds Subscribe!

Powrót
Przeglądasz witrynę jako gość.
Dlatego zachęcamy do rejestracji lub do zalogowania się.

Informacja
Użytkownicy z rangą Gość nie mogą dodawać komentarzy.