Menu

Download

Dziś nas odwiedzili:
laewa, grzes997, ziuta, waawr, jano666, bowe1969, pysiu_m, JurekO, cycek77, Trytonik, figo73, wire666, sir daro 24, skyluk, adam1neo, jeno10, pika01, drenn1, terry258, MarczelM, mwita3, bydgoszcz22, tomek i ania, mamata, wojpro, gex1, pit.7777, sproket1, mardra1, brovarek123, pentor, darekgl1968, jaco013, djlemur, Maciej2161, hellmucik, DeejayMalec, dulo123, MISIU11, tomaszo1948, elwro, lepper, demon190219, symoni2008, lopez76, buruburu, lukasz10051, virginiaa, podol76, lipenjusz, karol2005, Andi-diesel, mondia, Fedor11, zakopne, skalski72, Sebool53, jeak, ango, qczi, Tumek73, lenny79, fox57, swatfirerss, huarez44, dejw, lorak56, bazumi20, sharp_99, Lorenz, piurored123, mirek4321, Bóli123, trybsiu, foch5r, Auto-Lux, bodekk2, kriss86pl, GregorRox, FALKON69, mirunia22, magdajawor1, kiecio, Krakus51, 3366, Grzegorz72, P9N7, skajla, tat4, siwy710, BoloLVII, Sarima, aspekt2004, krepel, keram, akak1, kriszak, andy08, smoksmok31, ulaghost, danix20, slay25, gbur17, rumak83, arkadiusz271, adox80, narkusdwa, JoXs, szukisek, hopasiup, artfrst, ARTUROSE, Manias01, globline, jerry1013, papay100, aga2.05, lauenburg, kaszana27, Feniks101, vermigor, inesimariusz, serrafus, geniusloci, trez, pestka210, waldek77, kudek01, tedxvs, marian1999, konradko77, wojtasg, spoli, Marmur, robaczio9, pipipiotr, mariusz242, pepik11, robin163, gento, cichyd1, coruble, Uszka2001, jusia266, zable, buba48, polska00, biggreg, ryszardos69, sayo300, soko-p, splittt, celin, crownart, muldas, machoney1920, xard2906, angelo1969, Cirrus, zibiguzik, andjey, alex, wotar, EdiMar, topikos, weglownia, Bartekn90, buku54, pitereku, nonez, Vanisz, trixi i mila, jarecki500, aj 1971, skarabeusz, Seba1984r, szturmen, secundus, mp3de, wolfx95, Ashigari, tomex2u, and20, Zelwik, malczyce, matexe, cwiras22, jurekaw, EFBOT, monsun65, Svilesis

Archiwum:
Grudzień 2016 (857)
Listopad 2016 (2433)
Październik 2016 (1961)
Wrzesień 2016 (1857)
Sierpień 2016 (2521)
Lipiec 2016 (2605)


Pokaż wszystkie tagi:
Wejścia na Vorek.pl z:
{referer}



NABÓR NA STANOWISKO


MODERATOR        UPLOADER



Podróże Guliwera / Gulliver's Travels (2010) [CAM XviD] [EN]

Podróże Guliwera / Gulliver's Travels (2010) [CAM XviD] [EN]

reżyseria: Rob Letterman
scenariusz: Joe Stillman, Nicholas Stoller
premiera: 28 stycznia 2011 (Polska) 22 grudnia 2010 (Świat)
produkcja: USA
gatunek: Fantasy, Komedia, Przygodowy

Jack Black - Lemuel Gulliver
Jason Segel - Horatio
Emily Blunt - Księżniczka Mary
Olly Alexander - Książę August
Stewart Scudamore - Kapitan Blefuscu
Romany Malco - Młody Hank
T.J. Miller - Dan
Danni Bennatar - Księżniczka Olbrzymów
Haythem Noor - Kenny (niewymieniony w czołówce)
Nikki Harrup - Księżniczka Blefuscu

Uwspółcześniona ekranizacja słynnej powieści Jonathana Swifta, zrealizowana w cyfrowej technice 3D. Lemuel Gulliver, autor przewodników turystycznych, wyrusza w podróży służbowej na Bermudy, a trafia do krainy Liliputów, zamieszkałej przez miniaturowych mieszkańców, którym pomaga w wojnie z wojowniczymi sąsiadami.


Gullivers Travels 2010 CAM READNFO XViD-IMAGiNE

Video
ID                               : 0
Format                           : MPEG-4 Visual
Format profile                   : Advanced [email protected]
Format settings, BVOP            : Yes
Format settings, QPel            : No
Format settings, GMC             : No warppoints
Format settings, Matrix          : Default (MPEG)
Muxing mode                      : Packed bitstream
Codec ID                         : XVID
Codec ID/Hint                    : XviD
Duration                         : 1h 20mn
Bit rate                         : 2 314 Kbps
Width                            : 720 pixels
Height                           : 384 pixels
Display aspect ratio             : 1.875
Frame rate                       : 23.976 fps
Resolution                       : 24 bits
Colorimetry                      : 4:2:0
Scan type                        : Progressive
Bits/(Pixel*Frame)               : 0.349
Stream size                      : 1.29 GiB (94%)
Writing library                  : XviD 1.2.1 (UTC 2008-12-04)

Audio
ID                               : 1
Format                           : MPEG Audio
Format version                   : Version 1
Format profile                   : Layer 3
Codec ID                         : 55
Codec ID/Hint                    : MP3
Duration                         : 1h 20mn
Bit rate mode                    : Constant
Bit rate                         : 128 Kbps
Channel(s)                       : 2 channels
Sampling rate                    : 48.0 KHz
Resolution                       : 16 bits
Stream size                      : 73.3 MiB (5%)
Alignment                        : Split accross interleaves
Interleave, duration             : 42 ms (1.00 video frame)
Interleave, preload duration     : 500 ms

Podróże Guliwera / Gulliver's Travels (2010) [CAM XviD] [EN]Podróże Guliwera / Gulliver's Travels (2010) [CAM XviD] [EN]Podróże Guliwera / Gulliver's Travels (2010) [CAM XviD] [EN]Podróże Guliwera / Gulliver's Travels (2010) [CAM XviD] [EN]


Waga: 1.40GB

Paczki po 400MB, można pobierać na przemian:

Aby zobaczyć ukryty tekst musisz być zalogowany, jeżeli nie masz konta zarejestruj się!

lub

Aby zobaczyć ukryty tekst musisz być zalogowany, jeżeli nie masz konta zarejestruj się!

lub

Aby zobaczyć ukryty tekst musisz być zalogowany, jeżeli nie masz konta zarejestruj się!

lub

Aby zobaczyć ukryty tekst musisz być zalogowany, jeżeli nie masz konta zarejestruj się!


Paczki po 1GB, można pobierać na przemian:

Aby zobaczyć ukryty tekst musisz być zalogowany, jeżeli nie masz konta zarejestruj się!

lub

Aby zobaczyć ukryty tekst musisz być zalogowany, jeżeli nie masz konta zarejestruj się!

lub

Aby zobaczyć ukryty tekst musisz być zalogowany, jeżeli nie masz konta zarejestruj się!



Podziel się !

Delicious'da Share  Share on Facebook  Friendfeed Share  Google Shared  StubmleUpon'da Share  Digg'de Share  Netvibes'de Share  Reddit'de Share RSS Feeds Subscribe!

Powrót
Przeglądasz witrynę jako gość.
Dlatego zachęcamy do rejestracji lub do zalogowania się.

Informacja
Użytkownicy z rangą Gość nie mogą dodawać komentarzy.