Menu

Download

Dziś nas odwiedzili:
figo73, slabin, coruble, tomaszo1948, darodaro, jeno10, dariuszlbn, smina, trez, Fedor11, lukaszek17, Andi-diesel, topikos, klymvm, Sdrov, robek4, piurored123, bodekk2, akak1, bylik71, dejw, tobi180, Grzegorz72, albert6020, kwasek, szybki811, bil, tadeuszo7, Estek1, stanley_pl, xxvxx5, zibi19979, crownart, Dawid88Diablo, Trytonik, wotar, skajla, cukierek-85, pirek, iwonaro, edmund54, mogo76, karton1, mani4444, MARTEX01, jupkeennss, Feniks101, ralf1976, adasek.u, Uszka2001, lysy1710, igi2, mariant, bolo335, zajac26, adox80, zakopne, zpcytadela, JoXs, buruburu, zbeer, pepik11, mondia, robaczio9, Manias01, gruby1001, topolski, weenzer, eree, Ewelina05, kudek01, tomaszlegion, Tomciu78, Veni, victory04, jeak, marekdudi, tomex2u, marek.k30, kasiaj4, splittt, barteklublin111, dudikn, malczyce, muldas, misiu1185, mp3de, MarczelM, ARTUROSE, yonk, lorak56, mardra1, sharkus, lepper, jedrek00711, and20, arkadiusz271, ciechom, foch5r, kasi, robin163, brovarek123, GunHead, slay25, lordsiur, pychu007, elasuc, baraxx, dorkasevi, Bartekn90, ziuta, symoni2008, 3366, spoli, aspekt2004, michas86, bydgoszcz22, pipipiotr, karol2005, kurosumi, przemograf, szery17, riko121, celin, jano666, tedxvs, jerry1013, krewetka105, xard2906, sir daro 24, andrzej15181, biggreg, jinks13, mks, gawron.1983, angelo1969, syaro, iruss3, wenancjusz21, porwichp, Ashigari, Cirrus, lucky170, mariusz242, skarabeusz, andjey, jpwko, Zelwik, alex, EdiMar, jarecki500, romuskat, aj 1971, bazumi20, Kamirllo105, adikos34, buku54, Auto-Lux, waldek77, tristan_mk, virginiaa, ramon, jarro40, Bab66, Bóli123, -julius-, emilianox, Karlos2150, szturmen, gargamel_50, tom7517, puedros57, Finder, matexe, gbur17, Svilesis, momo1410, Vanisz, 17051970, zbok69, LeoMarkus, secundus, EFBOT

Archiwum:
Grudzień 2016 (919)
Listopad 2016 (2431)
Październik 2016 (1961)
Wrzesień 2016 (1857)
Sierpień 2016 (2521)
Lipiec 2016 (2605)


Pokaż wszystkie tagi:
Wejścia na Vorek.pl z:
{referer}



NABÓR NA STANOWISKO


MODERATOR        UPLOADER



Tomorrow, When the War Began (2010) [BDRiP XviD] [EN]

Tomorrow, When the War Began (2010) [BDRiP XviD] [EN]

reżyseria: Stuart Beattie
scenariusz: Stuart Beattie
premiera: 8 sierpnia 2010 (Świat)
produkcja: Australia, USA
gatunek: Dramat, Przygodowy, Akcja

Rachel Hurd-Wood - Corrie Mackenzie
Phoebe Tonkin - Fiona Maxwell
Caitlin Stasey - Ellie Linton
Lincoln Lewis - Kevin Holmes
Ashleigh Cummings - Robyn Mathers
Chris Pang - Lee Takkam
Andy Minh Trieu - Żołnierz
Andrew Ryan - Chris Lang
Andrew Liam Pringle - Nolan Baumson
Julia Yon - Mrs. Takkam

Oparty na bestsellerowej powieści Johna Marsdena film opowiada o ośmiu australijskich nastolatkach, którzy wybieraja sie na kilkudniowy kemping. W trakcie wycieczki blizej nieokreślony azjatycki kraj dokonuje inwazji na Australię. Po powrocie do ojczyzny młodzi ludzie muszą stawić czoło nowej sytuacji i walczyć o swoje życie.


Tomorrow When The War Began 2010 BDRip XVID AC3 HQ Hive-CM8

Video
ID                               : 0
Format                           : MPEG-4 Visual
Format profile                   : Advanced [email protected]
Format settings, BVOP            : Yes
Format settings, QPel            : Yes
Format settings, GMC             : No warppoints
Format settings, Matrix          : Default (H.263)
Muxing mode                      : Packed bitstream
Codec ID                         : XVID
Codec ID/Hint                    : XviD
Duration                         : 1h 43mn
Bit rate                         : 1 800 Kbps
Width                            : 720 pixels
Height                           : 304 pixels
Display aspect ratio             : 2.40:1
Frame rate                       : 24.000 fps
Color space                      : YUV
Chroma subsampling               : 4:2:0
Bit depth                        : 8 bits
Scan type                        : Progressive
Bits/(Pixel*Frame)               : 0.343
Stream size                      : 1.30 GiB (80%)
Writing library                  : XviD 1.2.1 (UTC 2008-12-04)

Audio
ID                               : 1
Format                           : AC-3
Format/Info                      : Audio Coding 3
Mode extension                   : CM (complete main)
Codec ID                         : 2000
Duration                         : 1h 43mn
Bit rate mode                    : Constant
Bit rate                         : 448 Kbps
Channel(s)                       : 6 channels
Channel positions                : Front: L C R, Side: L R, LFE
Sampling rate                    : 48.0 KHz
Bit depth                        : 16 bits
Stream size                      : 332 MiB (20%)
Alignment                        : Split accross interleaves
Interleave, duration             : 42 ms (1.00 video frame)
Interleave, preload duration     : 500 ms


Waga: 1.65GB

Paczki po 400MB, można pobierać na przemian:

Aby zobaczyć ukryty tekst musisz być zalogowany, jeżeli nie masz konta zarejestruj się!

lub

Aby zobaczyć ukryty tekst musisz być zalogowany, jeżeli nie masz konta zarejestruj się!

lub

Aby zobaczyć ukryty tekst musisz być zalogowany, jeżeli nie masz konta zarejestruj się!

lub

Aby zobaczyć ukryty tekst musisz być zalogowany, jeżeli nie masz konta zarejestruj się!


Paczki po 1GB, można pobierać na przemian:

Aby zobaczyć ukryty tekst musisz być zalogowany, jeżeli nie masz konta zarejestruj się!

lub

Aby zobaczyć ukryty tekst musisz być zalogowany, jeżeli nie masz konta zarejestruj się!

lub

Aby zobaczyć ukryty tekst musisz być zalogowany, jeżeli nie masz konta zarejestruj się!



Podziel się !

Delicious'da Share  Share on Facebook  Friendfeed Share  Google Shared  StubmleUpon'da Share  Digg'de Share  Netvibes'de Share  Reddit'de Share RSS Feeds Subscribe!

Powrót
Przeglądasz witrynę jako gość.
Dlatego zachęcamy do rejestracji lub do zalogowania się.

Informacja
Użytkownicy z rangą Gość nie mogą dodawać komentarzy.