Menu

Download

Dziś nas odwiedzili:
Archiwum:
Grudzień 2016 (233)
Listopad 2016 (2437)
Październik 2016 (1966)
Wrzesień 2016 (1859)
Sierpień 2016 (2523)
Lipiec 2016 (2609)


Pokaż wszystkie tagi:
Wejścia na Vorek.pl z:
{referer}



NABÓR NA STANOWISKO


MODERATOR        UPLOADER



Tron: Dziedzictwo / TRON: Legacy (2010) [TS XviD] [EN]

Tron: Dziedzictwo / TRON: Legacy (2010) [TS XviD] [EN]

reżyseria: Joseph Kosinski
scenariusz: Richard Jefferies, Lee Sternthal
premiera: 31 grudnia 2010 (Polska) 15 grudnia 2010 (Świat)
produkcja: USA
gatunek: Akcja, Sci-Fi

Garrett Hedlund - Sam Flynn
Jeff Bridges - Kevin Flynn / Clu 2.0
Olivia Wilde - Quorra
Amy Esterle - Młoda Pani Flynn
James Frain - Jarvis
Beau Garrett - Kusicielka Jem
Anis Cheurfa - Rinzler
Michael Sheen - Castor / Zuse
Bruce Boxleitner - Alan Bradley / Tron
Steven Lisberger - Shaddix

Sean Flynn ma 27 lat i jest synem Kevina Flynna (Jeff Bridges). Poszukując przyczyny nagłego zniknięcia swojego ojca, zostaje wciągnięty do cyfrowego świata, w którym jego ojciec żył przez ostatnie 25 lat. Wraz z lojalną powierniczką Kevina, Quorą (Olivia Wilde), ojciec i syn wyruszają na wyprawę przez wizualnie olśniewający, cybernetyczny wszechświat, który stał się jeszcze bardziej zaawansowany i nadzwyczaj niebezpieczny.


TRON Legacy 2010 TS XViD-IMAGiNE

Video
ID                               : 0
Format                           : MPEG-4 Visual
Format profile                   : Advanced [email protected]
Format settings, BVOP            : Yes
Format settings, QPel            : No
Format settings, GMC             : No warppoints
Format settings, Matrix          : Default (H.263)
Muxing mode                      : Packed bitstream
Codec ID                         : XVID
Codec ID/Hint                    : XviD
Duration                         : 1h 58mn
Bit rate                         : 1 513 Kbps
Width                            : 720 pixels
Height                           : 304 pixels
Display aspect ratio             : 2.35:1
Frame rate                       : 23.976 fps
Color space                      : YUV
Chroma subsampling               : 4:2:0
Bit depth                        : 8 bits
Scan type                        : Progressive
Bits/(Pixel*Frame)               : 0.288
Stream size                      : 1.25 GiB (92%)
Writing library                  : XviD 1.1.2 (UTC 2006-11-01)

Audio
ID                               : 1
Format                           : MPEG Audio
Format version                   : Version 1
Format profile                   : Layer 3
Codec ID                         : 55
Codec ID/Hint                    : MP3
Duration                         : 1h 58mn
Bit rate mode                    : Constant
Bit rate                         : 128 Kbps
Channel(s)                       : 2 channels
Sampling rate                    : 44.1 KHz
Stream size                      : 108 MiB (8%)
Alignment                        : Split accross interleaves
Interleave, duration             : 42 ms (1.00 video frame)
Interleave, preload duration     : 500 ms

Tron: Dziedzictwo / TRON: Legacy (2010) [TS XviD] [EN]Tron: Dziedzictwo / TRON: Legacy (2010) [TS XviD] [EN]Tron: Dziedzictwo / TRON: Legacy (2010) [TS XviD] [EN]Tron: Dziedzictwo / TRON: Legacy (2010) [TS XviD] [EN]


Waga:

Paczki po 400MB, można pobierać na przemian:

Aby zobaczyć ukryty tekst musisz być zalogowany, jeżeli nie masz konta zarejestruj się!

lub

Aby zobaczyć ukryty tekst musisz być zalogowany, jeżeli nie masz konta zarejestruj się!

lub

Aby zobaczyć ukryty tekst musisz być zalogowany, jeżeli nie masz konta zarejestruj się!

lub

Aby zobaczyć ukryty tekst musisz być zalogowany, jeżeli nie masz konta zarejestruj się!


Paczki po 1GB, można pobierać na przemian:

Aby zobaczyć ukryty tekst musisz być zalogowany, jeżeli nie masz konta zarejestruj się!

lub

Aby zobaczyć ukryty tekst musisz być zalogowany, jeżeli nie masz konta zarejestruj się!

lub

Aby zobaczyć ukryty tekst musisz być zalogowany, jeżeli nie masz konta zarejestruj się!



Podziel się !

Delicious'da Share  Share on Facebook  Friendfeed Share  Google Shared  StubmleUpon'da Share  Digg'de Share  Netvibes'de Share  Reddit'de Share RSS Feeds Subscribe!

Powrót
Przeglądasz witrynę jako gość.
Dlatego zachęcamy do rejestracji lub do zalogowania się.

Informacja
Użytkownicy z rangą Gość nie mogą dodawać komentarzy.