Menu

Download

Dziś nas odwiedzili:
Archiwum:
Grudzień 2016 (949)
Listopad 2016 (2431)
Październik 2016 (1961)
Wrzesień 2016 (1857)
Sierpień 2016 (2521)
Lipiec 2016 (2605)


Pokaż wszystkie tagi:
Wejścia na Vorek.pl z:
{referer}



NABÓR NA STANOWISKO


MODERATOR        UPLOADER



Turysta / The Tourist (2010) [TS XviD] [EN]

Turysta / The Tourist (2010) [TS XviD] [EN]

reżyseria: Florian Henckel von Donnersmarck
scenariusz: Julian Fellowes, Christopher McQuarrie
premiera: 14 stycznia 2011 (Polska) 8 grudnia 2010 (Świat)
produkcja: Francja, USA, Włochy
gatunek: Dramat, Thriller

Johnny Depp - Frank Taylor
Angelina Jolie - Elise Clifton-Ward
Rufus Sewell - Anglik
Raoul Bova -
Christian De Sica - Włoski policjant
Igor Jijikine - Zbir Demidova
Ralf Moeller -
Paul Bettany - Acheson
Timothy Dalton - Jones
Steven Berkoff - Ivan Demidov

"The Tourist" to remake francuskiego thrillera "Anthony Zimmer" z 2005 roku. Film opowiada o amerykańskim turyście (Johnny Depp), który znajduje się w niebezpieczeństwie z powodu spisku uknutego przez agentkę Interpolu (Angelina Jolie). Kobieta wykorzystuje go jako przynętę, by wywabić z kryjówki nieuchwytnego przestępcę, z którym kiedyś miała romans.


The Tourist 2010 TS READNFO XViD-IMAGiNE

Video
ID                               : 0
Format                           : MPEG-4 Visual
Format profile                   : Advanced [email protected]
Format settings, BVOP            : Yes
Format settings, QPel            : No
Format settings, GMC             : No warppoints
Format settings, Matrix          : Default (H.263)
Muxing mode                      : Packed bitstream
Codec ID                         : XVID
Codec ID/Hint                    : XviD
Duration                         : 1h 35mn
Bit rate                         : 925 Kbps
Width                            : 720 pixels
Height                           : 304 pixels
Display aspect ratio             : 2.35:1
Frame rate                       : 25.000 fps
Color space                      : YUV
Chroma subsampling               : 4:2:0
Bit depth                        : 8 bits
Scan type                        : Progressive
Bits/(Pixel*Frame)               : 0.169
Stream size                      : 635 MiB (87%)
Writing library                  : XviD 1.1.2 (UTC 2006-11-01)

Audio
ID                               : 1
Format                           : MPEG Audio
Format version                   : Version 1
Format profile                   : Layer 3
Codec ID                         : 55
Codec ID/Hint                    : MP3
Duration                         : 1h 35mn
Bit rate mode                    : Constant
Bit rate                         : 128 Kbps
Channel(s)                       : 2 channels
Sampling rate                    : 44.1 KHz
Stream size                      : 87.8 MiB (12%)
Alignment                        : Split accross interleaves
Interleave, duration             : 40 ms (1.00 video frame)
Interleave, preload duration     : 500 ms


Turysta / The Tourist (2010) [TS XviD] [EN]Turysta / The Tourist (2010) [TS XviD] [EN]Turysta / The Tourist (2010) [TS XviD] [EN]Turysta / The Tourist (2010) [TS XviD] [EN]


Waga: 820MB

Paczki po 400MB, można pobierać na przemian:

Aby zobaczyć ukryty tekst musisz być zalogowany, jeżeli nie masz konta zarejestruj się!

lub

Aby zobaczyć ukryty tekst musisz być zalogowany, jeżeli nie masz konta zarejestruj się!

lub

Aby zobaczyć ukryty tekst musisz być zalogowany, jeżeli nie masz konta zarejestruj się!

lub

Aby zobaczyć ukryty tekst musisz być zalogowany, jeżeli nie masz konta zarejestruj się!


820MB, jeden link:

Aby zobaczyć ukryty tekst musisz być zalogowany, jeżeli nie masz konta zarejestruj się!

lub

Aby zobaczyć ukryty tekst musisz być zalogowany, jeżeli nie masz konta zarejestruj się!

lub

Aby zobaczyć ukryty tekst musisz być zalogowany, jeżeli nie masz konta zarejestruj się!



Podziel się !

Delicious'da Share  Share on Facebook  Friendfeed Share  Google Shared  StubmleUpon'da Share  Digg'de Share  Netvibes'de Share  Reddit'de Share RSS Feeds Subscribe!

Powrót
Przeglądasz witrynę jako gość.
Dlatego zachęcamy do rejestracji lub do zalogowania się.

Informacja
Użytkownicy z rangą Gość nie mogą dodawać komentarzy.