Menu

Download

Dziś nas odwiedzili:
Archiwum:
Grudzień 2016 (823)
Listopad 2016 (2433)
Październik 2016 (1961)
Wrzesień 2016 (1857)
Sierpień 2016 (2521)
Lipiec 2016 (2605)


Pokaż wszystkie tagi:
Wejścia na Vorek.pl z:
{referer}



NABÓR NA STANOWISKO


MODERATOR        UPLOADER



Due Date (2010) CAM XViD - [913 MiB]

Due Date (2010) CAM XViD - [913 MiB]
Ripper ...........: IMAGiNE IMDB :Rating.......:7.2/10
Video Codec.......: XVID Audio Codec.......:MP3
Audio Bitrate.....: 128 Runtime.......:1h 29mn
Subtitles.........: NIL Language..........:ENGLISH
Resolution...... 672 x 304


Peter Highman (Robert Downey Jr.) must get to LA in five days to be at the birth of his firstborn. He is about to fly home from Atlanta when his luggage and wallet are stolen, and he is put on the "no-fly" list. Desperate to get home Peter is forced to accept the offer of Ethan Tremblay (Zach Galifianakis) to hitch a ride with him cross-country. Peter is about to go on a terrifying and agonizing journey of his life.

DETAILS:
Video
ID : 0
Format : MPEG-4 Visual
Format profile : Advanced [email protected]
Format settings, BVOP : Yes
Format settings, QPel : No
Format settings, GMC : No warppoints
Format settings, Matrix : Default (H.263)
Muxing mode : Packed bitstream
Codec ID : XVID
Codec ID/Hint : XviD
Duration : 1h 29mn
Bit rate : 1 421 Kbps
Width : 672 pixels
Height : 304 pixels
Display aspect ratio : 2.2:1
Frame rate : 23.976 fps
Color space : YUV
Chroma subsampling : 4:2:0
Bit depth : 8 bits
Scan type : Progressive
Bits/(Pixel*Frame) : 0.290
Stream size : 913 MiB
Writing library : XviD 1.1.2 (UTC 2006-11-01)

Audio
ID : 1
Format : MPEG Audio
Format version : Version 1
Format profile : Layer 3
Mode : Joint stereo
Mode extension : MS Stereo
Codec ID : 55
Codec ID/Hint : MP3
Duration : 1h 29mn
Bit rate mode : Constant
Bit rate : 128 Kbps
Channel(s) : 2 channels
Sampling rate : 44.1 KHz
Stream size : 82.3 MiB (8%)
Alignment : Aligned on interleaves
Interleave, duration : 26 ms (0.63 video frame)
Interleave, preload duration : 522 ms

Due Date (2010) CAM XViD - [913 MiB]


Due Date (2010) CAM XViD - [913 MiB]


Download (Filesonic)
http://www.filesonic.com/folder/481981

http://www.filesonic.com/file/34864483/--Due.-Date.2010.CAM.xvid-.part1.rar
http://www.filesonic.com/file/34864447/--Due.-Date.2010.CAM.xvid-.part2.rar

Mirror (Bitshare)
http://bitshare.com/files/fy4d15a9/--Due.-Date.2010.CAM.xvid-.part1.rar.html
http://bitshare.com/files/wsx1bldf/--Due.-Date.2010.CAM.xvid-.part2.rar.html

Mirror (Fileserve)
http://www.fileserve.com/file/VunBMAd/--Due.-Date.2010.CAM.xvid-.part1.rar
http://www.fileserve.com/file/Bpu2Jk4/--Due.-Date.2010.CAM.xvid-.part2.rar



Podziel się !

Delicious'da Share  Share on Facebook  Friendfeed Share  Google Shared  StubmleUpon'da Share  Digg'de Share  Netvibes'de Share  Reddit'de Share RSS Feeds Subscribe!

Powrót
Przeglądasz witrynę jako gość.
Dlatego zachęcamy do rejestracji lub do zalogowania się.

Informacja
Użytkownicy z rangą Gość nie mogą dodawać komentarzy.