Menu

Download

Dziś nas odwiedzili:
Archiwum:
Grudzień 2016 (888)
Listopad 2016 (2433)
Październik 2016 (1961)
Wrzesień 2016 (1857)
Sierpień 2016 (2521)
Lipiec 2016 (2605)


Pokaż wszystkie tagi:
Wejścia na Vorek.pl z:
{referer}



NABÓR NA STANOWISKO


MODERATOR        UPLOADER



Ojciec Mateusz (S04E01) [WEBRiP XviD] [PL - Produkcja]

Ojciec Mateusz (S04E01) [WEBRiP XviD] [PL - Produkcja]

produkcja: Polska
gatunek: Kryminał, Obyczajowy

Akcja serialu rozgrywa się w Sandomierzu i jego okolicach. Każdy z odcinków opowiada odrębną historię. Powracający z misji na Białorusi ksiądz Mateusz (Artur Żmijewski) zostaje wezwany przez biskupa (Sławomir Orzechowski). Na spotkaniu w kurii dowiaduje się, że obejmie probostwo w niewielkiej miejscowej parafii. Na pierwszej mszy odprawianej przez Mateusza poznajemy barwne grono jego parafian. Jest wśród nich jego gospodyni Natalia (Kinga Preis), Piotr kościelny i organista w jednej osobie (Łukasz Lewandowski) i policjant Nocul (Michał Piela). Gdy niezwykły detektywistyczny talent nowego proboszcza ujawni się, aspirant Nocul stanie się częstym gościem na plebanii.


Ojciec.Mateusz.S04E01.WEBRIP.XVID-NN

Video
ID                               : 0
Format                           : MPEG-4 Visual
Format profile                   : Advanced [email protected]
Format settings, BVOP            : Yes
Format settings, QPel            : No
Format settings, GMC             : No warppoints
Format settings, Matrix          : Default (H.263)
Codec ID                         : XVID
Codec ID/Hint                    : XviD
Duration                         : 44mn 39s
Bit rate                         : 990 Kbps
Width                            : 516 pixels
Height                           : 288 pixels
Display aspect ratio             : 16:9
Frame rate                       : 25.000 fps
Color space                      : YUV
Chroma subsampling               : 4:2:0
Bit depth                        : 8 bits
Scan type                        : Progressive
Bits/(Pixel*Frame)               : 0.266
Stream size                      : 316 MiB (90%)
Writing library                  : XviD 1.2.1 (UTC 2008-12-04)

Audio
ID                               : 1
Format                           : MPEG Audio
Format version                   : Version 1
Format profile                   : Layer 3
Mode                             : Joint stereo
Mode extension                   : MS Stereo
Codec ID                         : 55
Codec ID/Hint                    : MP3
Duration                         : 44mn 39s
Bit rate mode                    : Variable
Bit rate                         : 101 Kbps
Nominal bit rate                 : 128 Kbps
Channel(s)                       : 2 channels
Sampling rate                    : 44.1 KHz
Stream size                      : 32.3 MiB (9%)
Alignment                        : Aligned on interleaves
Interleave, duration             : 26 ms (0.65 video frame)
Interleave, preload duration     : 222 ms


Waga: 350MB

Aby zobaczyć ukryty tekst musisz być zalogowany, jeżeli nie masz konta zarejestruj się!

lub

Aby zobaczyć ukryty tekst musisz być zalogowany, jeżeli nie masz konta zarejestruj się!



Podziel się !

Delicious'da Share  Share on Facebook  Friendfeed Share  Google Shared  StubmleUpon'da Share  Digg'de Share  Netvibes'de Share  Reddit'de Share RSS Feeds Subscribe!

Powrót
Przeglądasz witrynę jako gość.
Dlatego zachęcamy do rejestracji lub do zalogowania się.

Informacja
Użytkownicy z rangą Gość nie mogą dodawać komentarzy.