Menu

Download

Dziś nas odwiedzili:
Archiwum:
Grudzień 2016 (613)
Listopad 2016 (2434)
Październik 2016 (1961)
Wrzesień 2016 (1857)
Sierpień 2016 (2521)
Lipiec 2016 (2605)


Pokaż wszystkie tagi:
Wejścia na Vorek.pl z:
{referer}



NABÓR NA STANOWISKO


MODERATOR        UPLOADER

Autor: aicid
Data: 23 Luty 2013
Kategoria: FILMY » Seriale
0


Tajemnice Smallville - Sezon 6 [TVRip] [XviD] [Lektor PL]

Produkcja: Kanada, USA
Gatunek: Przygodowy, Sci-Fi, Dla młodzieży
Data premiery: 2001-10-16 (Świat)
Reżyseria: Miles Millar, Greg Beeman
Scenariusz: Miles Millar, Alfred Gough
Zdjęcia: Attila Szalay
Muzyka: Mark Snow
Od lat: 12
Czas trwania: 22X40 min.

Opis:

Clark Kent przed rozpoczęciem kariery w Daily Planet wychował się i mieszkał wraz z rodzicami i wszystkimi przyjaciółmi w małym miasteczku Smallville. Jego najlepszym przyjacielem był Lex Luthor a miłością jego życia Lana. Film opowiada o wczesnych latach Clarka, o jego przemianach, o odkrywanych przez niego poszczególnych mocy. Fajny scenariusz i wspaniała muzyka sprawiają ze film posiada liczne grono fanów zarówno w Stanach Zjednoczonych jak i Europie.

http://imagetwist.com/2ef0d7nryz7m/Smallville.jpg.html
Tajemnice Smallville - Sezon 6 [TVRip] [XviD] [Lektor PL]
http://imagetwist.com/4vffnypejjut/Tajemnice_Smallville_06_x_01_Zod.avi_thumbs__2013.02.23_11.04.09_.jpg.html
Tajemnice Smallville - Sezon 6 [TVRip] [XviD] [Lektor PL]
http://imagetwist.com/5f0vh2z6my4i/Tajemnice_Smallville_06_x_02_Sneeze.avi_thumbs__2013.02.23_11.05.00_.jpg.html
Tajemnice Smallville - Sezon 6 [TVRip] [XviD] [Lektor PL]

Reszta zrzutów ekranu:

http://imagetwist.com/ugq7i33e4nlk/Tajemnice_Smallville_06_x_03_Wither.avi_thumbs__2013.02.23_11.06.22_.jpg.html
http://imagetwist.com/91y5g5lm71jk/Tajemnice_Smallville_06_x_04_Arrow.avi_thumbs__2013.02.23_11.07.29_.jpg.html
http://imagetwist.com/nnbsvx1i4ccb/Tajemnice_Smallville_06_x_05_Reunion.avi_thumbs__2013.02.23_11.08.23_.jpg.html
http://imagetwist.com/mz563budgiv9/Tajemnice_Smallville_06_x_06_Fallout.avi_thumbs__2013.02.23_11.09.00_.jpg.html
http://imagetwist.com/m35y02vtw62v/Tajemnice_Smallville_06_x_07_Rage.avi_thumbs__2013.02.23_11.09.41_.jpg.html
http://imagetwist.com/6qnthvi7srda/Tajemnice_Smallville_06_x_08_Static.avi_thumbs__2013.02.23_11.10.34_.jpg.html
http://imagetwist.com/9om2bjlqygne/Tajemnice_Smallville_06_x_09_Subterranean.avi_thumbs__2013.02.23_11.11.54_.jpg.html
http://imagetwist.com/fhp652boqe4k/Tajemnice_Smallville_06_x_10_Hydro.avi_thumbs__2013.02.23_11.12.43_.jpg.html
http://imagetwist.com/35e2sb20y775/Tajemnice_Smallville_06_x_11_Justice.avi_thumbs__2013.02.23_11.14.01_.jpg.html
http://imagetwist.com/uu9e2gyxt2ld/Tajemnice_Smallville_06_x_12_Labyrinth.avi_thumbs__2013.02.23_11.15.07_.jpg.html
http://imagetwist.com/wgvq72327i96/Tajemnice_Smallville_06_x_13_Crimson.avi_thumbs__2013.02.23_11.16.11_.jpg.html
http://imagetwist.com/8704v8fxh67u/Tajemnice_Smallville_06_x_14_Trespass.avi_thumbs__2013.02.23_11.18.36_.jpg.html
http://imagetwist.com/zkxju2nqr1ml/Tajemnice_Smallville_06_x_15_Freak.avi_thumbs__2013.02.23_11.19.46_.jpg.html
http://imagetwist.com/b97g9c0gtgt3/Tajemnice_Smallville_06_x_16_Promise.avi_thumbs__2013.02.23_11.20.27_.jpg.html
http://imagetwist.com/pla5oybyc77m/Tajemnice_Smallville_06_x_17_Combat_xvid.avi_thumbs__2013.02.23_11.21.28_.jpg.html
http://imagetwist.com/ijfx5uwlqufn/Tajemnice_Smallville_06_x_18_Progeny.avi_thumbs__2013.02.23_11.21.02_.jpg.html
http://imagetwist.com/0vbs3sdvvgx1/Tajemnice_Smallville_06_x_19_Nemesis.avi_thumbs__2013.02.23_11.22.08_.jpg.html
http://imagetwist.com/zz5lhk8z077m/Tajemnice_Smallville_06_x_20_Noir.avi_thumbs__2013.02.23_11.22.57_.jpg.html
http://imagetwist.com/1cfmplsnmylj/Tajemnice_Smallville_06_x_21_Prototype_xvid.avi_thumbs__2013.02.23_11.23.40_.jpg.html
http://imagetwist.com/slx4ftkqh5gj/Tajemnice_Smallville_06_x_22_Phantom_xvid.avi_thumbs__2013.02.23_11.24.27_.jpg.html

Obsada:

Tom Welling: Clark Kent
Michael Rosenbaum: Lex Luthor
Kristin Kreuk: Lana Lang
Allison Mack: Chloe Sullivan
Annette O'Toole: Martha Kent
John Glover: Lionel Luthor


Format : AVI
Format/Info : Audio Video Interleave
File size : 22X351 MiB
Duration : 47mn 45s
Overall bit rate : 1 029 Kbps
Writing application : VirtualDubMod 1.5.10.1 (build 2439/release)
Writing library : VirtualDubMod build 2439/release

Video
ID : 0
Format : MPEG-4 Visual
Format profile : [email protected]
Format settings, BVOP : No
Format settings, QPel : No
Format settings, GMC : No warppoints
Format settings, Matrix : Default (H.263)
Codec ID : XVID
Codec ID/Hint : XviD
Duration : 47mn 45s
Bit rate : 891 Kbps
Width : 512 pixels
Height : 384 pixels
Display aspect ratio : 4:3
Frame rate : 25.000 fps
Color space : YUV
Chroma subsampling : 4:2:0
Bit depth : 8 bits
Scan type : Progressive
Bits/(Pixel*Frame) : 0.181
Stream size : 304 MiB (87%)
Writing library : XviD 1.0.3 (UTC 2004-12-20)

Audio
ID : 1
Format : MPEG Audio
Format version : Version 1
Format profile : Layer 3
Mode : Dual mono
Codec ID : 55
Codec ID/Hint : MP3
Duration : 47mn 45s
Bit rate mode : Variable
Bit rate : 128 Kbps
Channel(s) : 2 channels
Sampling rate : 48.0 KHz
Stream size : 42.8 MiB (12%)
Alignment : Aligned on interleaves
Interleave, duration : 24 ms (0.60 video frame)
Interleave, preload duration : 530 ms
Writing library : LAME3.96r
Encoding settings : -m d -V 4 -q 3 -lowpass 17.5 --abr 128


EGOFILES:
Aby zobaczyć ukryty tekst musisz być zalogowany, jeżeli nie masz konta zarejestruj się!

CATSHARE:
Aby zobaczyć ukryty tekst musisz być zalogowany, jeżeli nie masz konta zarejestruj się!

HELLSHARE:
Aby zobaczyć ukryty tekst musisz być zalogowany, jeżeli nie masz konta zarejestruj się!



Podziel się !

Delicious'da Share  Share on Facebook  Friendfeed Share  Google Shared  StubmleUpon'da Share  Digg'de Share  Netvibes'de Share  Reddit'de Share RSS Feeds Subscribe!

Powrót
Przeglądasz witrynę jako gość.
Dlatego zachęcamy do rejestracji lub do zalogowania się.

Informacja
Użytkownicy z rangą Gość nie mogą dodawać komentarzy.