Menu

Download

Dziś nas odwiedzili:
Archiwum:
Grudzień 2016 (881)
Listopad 2016 (2433)
Październik 2016 (1961)
Wrzesień 2016 (1857)
Sierpień 2016 (2521)
Lipiec 2016 (2605)


Pokaż wszystkie tagi:
Wejścia na Vorek.pl z:
{referer}



NABÓR NA STANOWISKO


MODERATOR        UPLOADER

Autor: aicid
Data: 5 Luty 2013
Kategoria: FILMY » Seriale
0


Californication - Sezon 5 [720p.WEB-DL.x264.AC3] [Lektor PL] + OST Soundtrack

produkcja: USA
gatunek: Komedia, Dramat
twórca: Tom Kapinos
zdjęcia: Peter Levy, Andy Graham
muzyka: Tyler Bates, Tree Adams
czas trwania: ok. 29 min.

Opis:

Były Nowojorczyk, autor jednego książkowego hitu, Hank Moody cierpi na blokadę twórczą. Każdego dnia stara się jednocześnie odzyskać gasnącą sławę, wychować nastoletnią córkę i nie zepsuć relacji z Karen, miłością swego życia. Los Angeles, w którym obecnie żyje pełne jest jednak alkoholu, narkotyków i kobiet - pokus, którym trudno się oprzeć.

Californication - Sezon 5 [720p.WEB-DL.x264.AC3] [Lektor PL] + OST Soundtrack

Obsada:

David Duchovny: Hank Moody
Natascha McElhone: Karen
Madeleine Martin: Becca Moody
Evan Handler: Charlie Runkle
Pamela Adlon: Marcy Runkle
Stephen Tobolowsky: Stu Baggs

Info:

Dane techniczne poszczególnych odcinków nieznacznie się różnią.
Przykładowe dane losowo wybranego odcinka:

Format : Matroska
Format version : Version 2
File size : 555 MiB
Duration : 28mn 22s
Overall bit rate : 2 735 Kbps

Video
ID : 1
Format : AVC
Format/Info : Advanced Video Codec
Format profile : [email protected]
Format settings, CABAC : Yes
Format settings, ReFrames : 2 frames
Codec ID : V_MPEG4/ISO/AVC
Duration : 28mn 22s
Bit rate : 2 578 Kbps
Width : 1 280 pixels
Height : 720 pixels
Display aspect ratio : 16:9
Frame rate mode : Constant
Frame rate : 23.976 fps
Stream size : 499 MiB (90%)
Writing library : x264

Audio
ID : 2
Format : AC-3
Format/Info : Audio Coding 3
Duration : 28mn 22s
Bit rate mode : Constant
Bit rate : 224 Kbps
Channel(s) : 2 channels
Channel positions : Front: L R
Sampling rate : 48.0 KHz
Stream size : 45.5 MiB (8%)
Language : Polish

EGOFILES:
Aby zobaczyć ukryty tekst musisz być zalogowany, jeżeli nie masz konta zarejestruj się!

CATSHARE:
Aby zobaczyć ukryty tekst musisz być zalogowany, jeżeli nie masz konta zarejestruj się!

HELLSHARE:
Aby zobaczyć ukryty tekst musisz być zalogowany, jeżeli nie masz konta zarejestruj się!



Podziel się !

Delicious'da Share  Share on Facebook  Friendfeed Share  Google Shared  StubmleUpon'da Share  Digg'de Share  Netvibes'de Share  Reddit'de Share RSS Feeds Subscribe!

Powrót
Przeglądasz witrynę jako gość.
Dlatego zachęcamy do rejestracji lub do zalogowania się.

Informacja
Użytkownicy z rangą Gość nie mogą dodawać komentarzy.