Menu

Download

Dziś nas odwiedzili:
Archiwum:
Grudzień 2016 (703)
Listopad 2016 (2434)
Październik 2016 (1961)
Wrzesień 2016 (1857)
Sierpień 2016 (2521)
Lipiec 2016 (2605)


Pokaż wszystkie tagi:
Wejścia na Vorek.pl z:
{referer}



NABÓR NA STANOWISKO


MODERATOR        UPLOADER

Autor: aicid
Data: 4 Luty 2013
Kategoria: FILMY » Seriale
0


Dexter - Sezon 7 [720p.HDTV.x264.AC3] [Lektor PL]

Dexter - Sezon 7

produkcja: USA
gatunek: Dramat, Kryminał
reżyseria: Michael Cuesta, Tony Goldwyn
scenariusz: Timothy Schlattmann, Scott Buck
zdjęcia: Romeo Tirone
muzyka: Daniel Licht
czas trwania: ok. 54-58 min.

Opis:

Serial bazuje na bestsellerowej powieści Jeffa Lindsay'a "Demony dobrego Dextera". Wykorzystywany i porzucony w dzieciństwie Dexter, jest teraz odnoszącym sukcesy pracownikiem laboratorium kryminalistycznego w Miami. Jego specjalnością jest analiza śladów krwi. Jednak ten z pozoru sympatyczny człowiek skrywa mroczny sekret - aby zaspokoić mordercze żądze, Dexter Morgan eliminuje w brutalny i perfekcyjnie przemyślany sposób groźnych przestępców, którzy wymknęli się sprawiedliwości.

Dexter - Sezon 7 [720p.HDTV.x264.AC3] [Lektor PL]

Obsada:

Michael C. Hall: Dexter Morgan
Jennifer Carpenter: Debra Morgan
David Zayas: Angel Batista
Lauren Vélez: Maria LaGuerta
Desmond Harrington: Joey Quinn
C.S. Lee: Vince Masuka
Aimee Garcia: Jamie Batista

Info:

Dane techniczne poszczególnych odcinków nieznacznie się różnią.
Przykładowe dane losowo wybranego odcinka:

Format : Matroska
Format version : Version 2
File size : 1.00 GiB
Duration : 57mn 50s
Overall bit rate : 2 476 Kbps

Video
ID : 1
Format : AVC
Format/Info : Advanced Video Codec
Format profile : [email protected]
Format settings, CABAC : Yes
Format settings, ReFrames : 2 frames
Codec ID : V_MPEG4/ISO/AVC
Duration : 57mn 50s
Bit rate : 2 265 Kbps
Width : 1 280 pixels
Height : 720 pixels
Display aspect ratio : 16:9
Frame rate mode : Constant
Frame rate : 29.970 fps
Stream size : 911 MiB (89%)
Writing library : x264

Audio
ID : 2
Format : AC-3
Format/Info : Audio Coding 3
Duration : 57mn 50s
Bit rate mode : Constant
Bit rate : 224 Kbps
Channel(s) : 2 channels
Channel positions : Front: L R
Sampling rate : 48.0 KHz
Stream size : 92.7 MiB (9%)
Language : Polish

Aby zobaczyć ukryty tekst musisz być zalogowany, jeżeli nie masz konta zarejestruj się!



Podziel się !

Delicious'da Share  Share on Facebook  Friendfeed Share  Google Shared  StubmleUpon'da Share  Digg'de Share  Netvibes'de Share  Reddit'de Share RSS Feeds Subscribe!

Powrót
Przeglądasz witrynę jako gość.
Dlatego zachęcamy do rejestracji lub do zalogowania się.

Informacja
Użytkownicy z rangą Gość nie mogą dodawać komentarzy.